<?xml version="1.0" standalone="no"?>
<!DOCTYPE svg PUBLIC "-//W3C//DTD SVG 1.1//EN" "http://www.w3.org/Graphics/SVG/1.1/DTD/svg11.dtd" >
<svg xmlns="http://www.w3.org/2000/svg" xmlns:xlink="http://www.w3.org/1999/xlink" version="1.1">
<metadata>
Created by FontForge 20170731 at Thu Dec 15 21:14:52 2011
 By Aleksey,,,
(c) 2011 Microsoft Corporation. All Rights Reserved.
</metadata>
<defs>
<font id="UrduTypesetting" horiz-adv-x="0" >
  <font-face 
    font-family="Urdu Typesetting"
    font-weight="400"
    font-stretch="normal"
    units-per-em="2048"
    panose-1="3 2 4 2 4 4 6 3 2 3"
    ascent="1638"
    descent="-410"
    x-height="812"
    cap-height="1257"
    bbox="-656 -789 4179 2802"
    underline-thickness="20"
    underline-position="-430"
    unicode-range="U+0020-FEFB"
  />
<missing-glyph horiz-adv-x="684" 
d="M684 960v-960h-684v960h684zM627 57v846h-570v-846h570z" />
    <glyph glyph-name="uniFC5E" unicode="&#xfc5e;" arabic-form="isolated" 
d="M-180 60q0 18 2 41t10 70l24 74q3 9 5 9q6 0 6 -18l-1 -10q-1 -6 -2.5 -17.5t-3 -25.5t-3 -27.5t-1.5 -23.5q0 -8 1.5 -17.5t6.5 -18t14 -14t24 -5.5q38 0 55 20t20 56q1 18 3 33q3 14 11.5 40t20.5 63q2 5 5 5q2 0 2 -2v-139q0 -11 7.5 -21t18 -17.5t23 -12t23.5 -4.5
q10 0 24.5 6t14.5 18l-6 52q0 35 11.5 68t21.5 66q2 5 6 11t10 6t6 -6l-4 -44l7 -97q0 -11 -0.5 -15.5t-4.5 -16.5q-2 -7 -6 -21.5t-9 -30.5t-10 -30t-8 -20q-11 -27 -36.5 -43t-56.5 -16q-26 0 -41 18t-23 38q-9 -16 -18.5 -31t-21.5 -26.5t-27.5 -18.5t-36.5 -7
q-20 0 -32.5 10t-19.5 25t-9 33t-2 34zM34 432q-22 9 -38 23.5t-16 38.5q1 15 7.5 31t15 31t18 29t17.5 25q10 12 22 25.5t26.5 25t31 18.5t36.5 7q21 0 34 -6.5t21 -16.5t11 -23t3 -26q-3 -35 -14 -60.5t-26 -48.5q-24 -37 -62.5 -74.5t-81.5 -67.5t-85.5 -48.5
t-73.5 -18.5q-20 0 -31.5 7t-17 18.5t-7 25.5t-1.5 28q0 28 -4 41.5t-23 13.5q-7 0 -18 -4t-28 -15q-1 -1 -3 -1q-5 0 -5 5t8 12.5t12 9.5q38 29 61.5 40t38.5 11q20 0 29 -9.5t12.5 -23t3 -30t1 -30t6 -23t17.5 -9.5q10 0 25 6q23 15 41 29.5t37 33.5zM44 572
q0 -10 6.5 -21.5t17 -21.5t22 -16.5t22.5 -6.5q22 0 34 13t12 30t-13.5 31.5t-44.5 17.5q-7 0 -16 -1.5t-17.5 -4.5t-15 -8t-7.5 -12z" />
    <glyph glyph-name="uniFC5F" unicode="&#xfc5f;" arabic-form="isolated" 
d="M-192 -69q0 14 12 28q10 15 25 35t27 34q4 3 16.5 8t43.5 16t86.5 30t145.5 50q2 0 13 4.5t17 4.5q3 0 3 -3t-3 -9q-4 -5 -13 -15.5t-19.5 -22t-20.5 -22t-14 -14.5q-17 -18 -39 -27l-250 -96q-4 -2 -11.5 -4t-12.5 -2q-6 0 -6 5zM-201 81q0 14 12 28q10 15 24.5 34.5
t27.5 34.5q4 3 16.5 8t43.5 16t86.5 30t145.5 50q2 0 13 4.5t17 4.5q3 0 3 -3t-3 -9q-4 -5 -13 -15.5t-19.5 -22t-20.5 -22t-14 -14.5q-17 -18 -39 -27l-250 -96q-4 -2 -11.5 -4t-12.5 -2q-6 0 -6 5zM-160 380q0 18 2 41t10 70l24 74q3 9 5 9q6 0 6 -18l-1 -10
q-1 -6 -2.5 -17.5t-3 -25.5t-3 -27.5t-1.5 -23.5q0 -8 1.5 -17.5t6.5 -18t14 -14t24 -5.5q38 0 55 20t20 56q1 18 3 33q3 14 11.5 40t20.5 63q2 5 5 5q2 0 2 -2v-139q0 -11 7.5 -21t18 -17.5t23 -12t23.5 -4.5q10 0 24.5 6t14.5 18l-6 52q0 35 11.5 68t21.5 66q2 5 6 11
t10 6t6 -6l-4 -44l7 -97q0 -11 -0.5 -15.5t-4.5 -16.5q-2 -7 -6 -21.5t-9 -30.5t-10 -30t-8 -20q-11 -27 -36.5 -43t-56.5 -16q-26 0 -41 18t-23 38q-9 -16 -18.5 -31t-21.5 -26.5t-27.5 -18.5t-36.5 -7q-20 0 -32.5 10t-19.5 25t-9 33t-2 34z" />
    <glyph glyph-name="uniFC60" unicode="&#xfc60;" arabic-form="isolated" 
d="M-180 60q0 18 2 41t10 70l24 74q3 9 5 9q6 0 6 -18l-1 -10q-1 -6 -2.5 -17.5t-3 -25.5t-3 -27.5t-1.5 -23.5q0 -8 1.5 -17.5t6.5 -18t14 -14t24 -5.5q38 0 55 20t20 56q1 18 3 33q3 14 11.5 40t20.5 63q2 5 5 5q2 0 2 -2v-139q0 -11 7.5 -21t18 -17.5t23 -12t23.5 -4.5
q10 0 24.5 6t14.5 18l-6 52q0 35 11.5 68t21.5 66q2 5 6 11t10 6t6 -6l-4 -44l7 -97q0 -11 -0.5 -15.5t-4.5 -16.5q-2 -7 -6 -21.5t-9 -30.5t-10 -30t-8 -20q-11 -27 -36.5 -43t-56.5 -16q-26 0 -41 18t-23 38q-9 -16 -18.5 -31t-21.5 -26.5t-27.5 -18.5t-36.5 -7
q-20 0 -32.5 10t-19.5 25t-9 33t-2 34zM-182 292q0 14 12 28q10 15 24.5 34.5t27.5 34.5q4 3 16.5 8t43.5 16t86.5 30t145.5 50q2 0 13 4.5t17 4.5q3 0 3 -3t-3 -9q-4 -5 -13 -15.5t-19.5 -22t-20.5 -22t-14 -14.5q-17 -18 -39 -27l-250 -96q-4 -2 -11.5 -4t-12.5 -2
q-6 0 -6 5z" />
    <glyph glyph-name="uniFC61" unicode="&#xfc61;" arabic-form="isolated" 
d="M-180 60q0 18 2 41t10 70l24 74q3 9 5 9q6 0 6 -18l-1 -10q-1 -6 -2.5 -17.5t-3 -25.5t-3 -27.5t-1.5 -23.5q0 -8 1.5 -17.5t6.5 -18t14 -14t24 -5.5q38 0 55 20t20 56q1 18 3 33q3 14 11.5 40t20.5 63q2 5 5 5q2 0 2 -2v-139q0 -11 7.5 -21t18 -17.5t23 -12t23.5 -4.5
q10 0 24.5 6t14.5 18l-6 52q0 35 11.5 68t21.5 66q2 5 6 11t10 6t6 -6l-4 -44l7 -97q0 -11 -0.5 -15.5t-4.5 -16.5q-2 -7 -6 -21.5t-9 -30.5t-10 -30t-8 -20q-11 -27 -36.5 -43t-56.5 -16q-26 0 -41 18t-23 38q-9 -16 -18.5 -31t-21.5 -26.5t-27.5 -18.5t-36.5 -7
q-20 0 -32.5 10t-19.5 25t-9 33t-2 34zM3 431q-22 9 -38 23.5t-16 38.5q1 16 7 31.5t14.5 30.5t18 28.5t18.5 25.5q10 12 22 25t27 24.5t31.5 19t35.5 7.5q22 0 35.5 -5.5t21 -15t10.5 -21t3 -23.5q-3 -34 -15.5 -61t-27.5 -50q-47 -72 -114 -120t-142 -85q-15 -8 -37 -14
t-35 -6q-3 0 -6.5 0.5t-3.5 3.5q0 5 7.5 11.5t12.5 9.5q19 14 42.5 27t45.5 28q23 16 43.5 32t39.5 35zM13 571q0 -10 6.5 -21.5t17 -21.5t22 -16.5t22.5 -6.5q22 0 34 13t12 30t-17 31.5t-41 17.5q-7 0 -16.5 -1.5t-17.5 -4.5t-14.5 -8t-7.5 -12z" />
    <glyph glyph-name="uniFC62" unicode="&#xfc62;" arabic-form="isolated" 
d="M-201 -73q0 14 12 28q10 15 24.5 34.5t27.5 34.5q4 3 16.5 8t43.5 16t86.5 30t145.5 50q2 0 13 4.5t17 4.5q3 0 3 -3t-3 -9q-4 -5 -13 -15.5t-19.5 -22t-20.5 -22t-14 -14.5q-17 -18 -39 -27l-250 -96q-4 -2 -11.5 -4t-12.5 -2q-6 0 -6 5zM-160 247q0 18 2 41t10 70
l24 74q3 9 5 9q6 0 6 -18l-1 -10q-1 -6 -2.5 -17.5t-3 -25.5t-3 -27.5t-1.5 -23.5q0 -8 1.5 -17.5t6.5 -18t14 -14t24 -5.5q38 0 55 20t20 56q1 18 3 33q3 14 11.5 40t20.5 63q2 5 5 5q2 0 2 -2v-139q0 -11 7.5 -21t18 -17.5t23 -12t23.5 -4.5q10 0 24.5 6t14.5 18l-6 52
q0 35 11.5 68t21.5 66q2 5 6 11t10 6t6 -6l-4 -44l7 -97q0 -11 -0.5 -15.5t-4.5 -16.5q-2 -7 -6 -21.5t-9 -30.5t-10 -30t-8 -20q-11 -27 -36.5 -43t-56.5 -16q-26 0 -41 18t-23 38q-9 -16 -18.5 -31t-21.5 -26.5t-27.5 -18.5t-36.5 -7q-20 0 -32.5 10t-19.5 25t-9 33t-2 34
z" />
    <glyph glyph-name="uniFC63" unicode="&#xfc63;" arabic-form="isolated" 
d="M-180 60q0 18 2 41t10 70l24 74q3 9 5 9q6 0 6 -18l-1 -10q-1 -6 -2.5 -17.5t-3 -25.5t-3 -27.5t-1.5 -23.5q0 -8 1.5 -17.5t6.5 -18t14 -14t24 -5.5q38 0 55 20t20 56q1 18 3 33q3 14 11.5 40t20.5 63q2 5 5 5q2 0 2 -2v-139q0 -11 7.5 -21t18 -17.5t23 -12t23.5 -4.5
q10 0 24.5 6t14.5 18l-6 52q0 35 11.5 68t21.5 66q2 5 6 11t10 6t6 -6l-4 -44l7 -97q0 -11 -0.5 -15.5t-4.5 -16.5q-2 -7 -6 -21.5t-9 -30.5t-10 -30t-8 -20q-11 -27 -36.5 -43t-56.5 -16q-26 0 -41 18t-23 38q-9 -16 -18.5 -31t-21.5 -26.5t-27.5 -18.5t-36.5 -7
q-20 0 -32.5 10t-19.5 25t-9 33t-2 34zM-19 347v125.5t0.5 74t1.5 37.5t2 16q2 19 8.5 39t15 40.5t17.5 40t15 37.5q3 8 6.5 10t5.5 2q6 0 6 -22q0 -3 -2 -22t-4.5 -50.5t-4.5 -73.5t-2 -92q0 -12 -2 -34t-7 -37l-52 -150q-2 -3 -3 -3q-4 0 -4 6z" />
    <glyph glyph-name="uniFDF2" unicode="&#xfdf2;" horiz-adv-x="1321" arabic-form="isolated" 
d="M569 789q0 8 3 21t3 24q0 66 4.5 116t6.5 61q2 13 8 30t13 33.5t14.5 32t12.5 26.5q4 9 11 9q5 0 5 -8q0 -2 -0.5 -5.5t-1.5 -8.5q-1 -6 -3.5 -17t-4.5 -23t-4 -23.5t-2 -18.5v-29t-1 -25l-2 -24t-2 -27q-1 -6 -3 -14.5t-4 -12.5l-46 -119q-2 -2 -4 -2q-3 0 -3 4z
M-45 -71q39 42 77.5 81t75.5 78.5t71.5 81t66.5 88.5q18 26 32 53t27 55q16 34 26 34q7 0 7 -9q0 -6 -5 -31q-4 -16 -10 -32.5t-8 -33.5q-1 -3 -1 -12q0 -18 8.5 -31t21.5 -21t28.5 -11.5t28.5 -3.5q34 0 62 11t50 29.5t38.5 43t27.5 51.5q3 8 6.5 20.5t5.5 20.5q8 23 17 23
q3 0 5 -6t2 -14q0 -5 -0.5 -11t-0.5 -12q0 -44 25.5 -71t79.5 -27q10 0 27 2t34 7t32 12.5t21 18.5v23q0 46 -6 90t-14 89q3 58 23.5 113t41.5 110q12 30 17 30q3 0 3.5 -9.5t2.5 -27.5q3 -35 7 -64t8 -56.5t6.5 -57.5t2.5 -67q0 -19 -1.5 -39.5t-7.5 -40.5
q-10 -32 -22 -70.5t-28 -77.5t-36.5 -76.5t-47 -66.5t-58.5 -46.5t-72 -17.5q-23 0 -45 9.5t-39 30.5q-23 27 -30 63q-8 -15 -16 -29t-16 -27q-26 -38 -66 -66t-88 -28q-32 0 -52 10t-32 28t-17 43.5t-6 56.5q-17 -19 -32.5 -36t-31.5 -33t-33 -32.5t-38 -34.5
q-32 -28 -68.5 -55t-74.5 -50q-20 -14 -29 -14q-6 0 -6 5q0 12 23 37zM657 678q7 19 13 35.5t12 34.5q4 9 7 9q4 0 6 -14q2 -10 3 -22.5t1 -24.5q0 -34 -8 -67.5t-26 -56.5q-12 -15 -26 -24.5t-30 -9.5q-18 0 -29.5 11t-16.5 25q-9 -21 -26 -38t-40 -17q-17 0 -30 14t-13 37
q0 26 5.5 54t9.5 47q4 14 8.5 28t10.5 28q1 6 5 6t4 -9v-4q-2 -19 -6.5 -43t-4.5 -45q0 -18 7 -26t18 -8q23 0 36 20q10 12 12 28t4 36l19 54q3 8 6 8q7 0 7 -9t-0.5 -28t-0.5 -32q0 -25 5.5 -42t25.5 -17q15 0 29 7q2 11 2.5 23.5t0.5 31.5zM1095 143q2 45 3.5 100.5
t2.5 115.5t1.5 122t1 121.5t0.5 113.5v98q0 16 7.5 49t18.5 72t24 78.5t25 69.5q11 27 23 46t23 20q10 0 10 -16q0 -13 -3.5 -32t-5.5 -40q-6 -70 -8.5 -139t-2.5 -138q0 -54 2 -108.5t2 -108.5q0 -114 -19 -220t-69 -207q-10 -22 -21 -22q-12 0 -15 25z" />
    <glyph glyph-name="uniFDF4" unicode="&#xfdf4;" horiz-adv-x="1263" arabic-form="isolated" 
d="M-21 -42q63 46 121.5 93.5t109.5 99.5t93.5 110.5t74.5 126.5l49 147q6 18 13.5 31.5t12.5 13.5t5 -17v-10t-1 -12q-6 -35 -14.5 -75.5t-8.5 -79.5q0 -38 13 -72t51 -58q10 34 23.5 65.5t32.5 61.5q23 36 48 60.5t53 43t59.5 33t67.5 29.5l30 13q45 18 85.5 43t66.5 57
q-7 12 -27.5 16.5t-46.5 4.5h-15.5t-15.5 -1q-35 -2 -76.5 -7t-82.5 -14.5t-78.5 -24.5t-64.5 -37q-4 -3 -9 -7t-8 -4t-3 4q0 6 4 21q10 40 28 77q57 121 147 210t208 155q-8 7 -16 19.5t-14.5 27.5t-11 30.5t-4.5 27.5q0 16 4.5 31.5t12.5 33.5q23 49 38.5 80t26 50.5
t16.5 29.5t10 17q5 8 8 12.5t10 4.5q8 0 11 -1q19 -3 43 -18t47 -34t42 -37.5t28 -28.5q15 -20 21.5 -39.5t6.5 -38.5q0 -30 -14.5 -58t-39.5 -57q-24 -31 -58 -56.5t-72 -48t-76.5 -42.5t-70.5 -39q-60 -35 -113 -74.5t-98 -91.5q24 9 66 21.5t90 24t95 19.5t81 8
q38 0 55.5 -4.5t17.5 -23.5q-3 -23 -11 -46t-18.5 -45.5t-22.5 -43t-24 -38.5q-30 -45 -71 -83t-83 -72q-30 -24 -63 -41.5t-66.5 -33t-67.5 -31t-66 -35.5q2 -17 16 -23t34 -6q24 0 45 6t42 6q14 0 24 -7.5t12 -30.5q0 -35 -17.5 -74t-37.5 -71q-16 -26 -38.5 -49.5
t-48.5 -41t-54.5 -28t-55.5 -10.5q-36 0 -67.5 21t-51.5 72q-8 20 -13.5 40t-12.5 46q-21 -42 -41 -86t-51 -79q-20 -24 -45.5 -35t-51.5 -19q-49 -15 -90.5 -22.5t-84.5 -17.5q-24 -6 -35 -6q-10 0 -10 5q0 6 12.5 16t26.5 21z" />
    <glyph glyph-name="uniFDFC" unicode="&#xfdfc;" horiz-adv-x="1006" arabic-form="isolated" 
d="M-45 -71q39 42 77.5 81t75.5 78.5t71.5 81t66.5 88.5q18 26 32 53t27 55q16 34 26 34q7 0 7 -9q0 -6 -5 -31q-4 -16 -10 -32.5t-8 -33.5q-1 -3 -1 -12q0 -18 8.5 -31t21.5 -21t28.5 -11.5t28.5 -3.5q34 0 62 11t50 29.5t38.5 43t27.5 51.5q3 8 6.5 20.5t5.5 20.5
q8 23 17 23q3 0 5 -6t2 -14q0 -5 -0.5 -11t-0.5 -12q0 -44 25.5 -71t79.5 -27q10 0 27 2t34 7t32 12.5t21 18.5v23q0 46 -6 90t-14 89q3 58 23.5 113t41.5 110q12 30 17 30q3 0 3.5 -9.5t2.5 -27.5q3 -35 7 -64t8 -56.5t6.5 -57.5t2.5 -67q0 -19 -1.5 -39.5t-7.5 -40.5
q-10 -32 -22 -70.5t-28 -77.5t-36.5 -76.5t-47 -66.5t-58.5 -46.5t-72 -17.5q-23 0 -45 9.5t-39 30.5q-23 27 -30 63q-8 -15 -16 -29t-16 -27q-26 -38 -66 -66t-88 -28q-32 0 -52 10t-32 28t-17 43.5t-6 56.5q-17 -19 -32.5 -36t-31.5 -33t-33 -32.5t-38 -34.5
q-32 -28 -68.5 -55t-74.5 -50q-20 -14 -29 -14q-6 0 -6 5q0 12 23 37z" />
    <glyph glyph-name="uniFEF4" unicode="&#x64a;" horiz-adv-x="1422" arabic-form="medial" 
d="M294 623q0 -12 -6.5 -35t-21.5 -61q-28 -69 -46 -138t-18 -141q0 -62 19.5 -113.5t55.5 -88.5t88 -57.5t117 -20.5q85 0 164.5 25.5t145.5 71.5t115 110.5t73 143.5q18 94 24.5 168.5t6.5 128.5v598q0 52 4.5 91t13.5 73.5t23.5 69t34.5 77.5q4 9 9 20.5t10.5 22t10.5 18
t9 7.5t7 -12t3 -23q0 -14 -0.5 -41.5t-1.5 -61.5t-1.5 -70.5t-1.5 -69.5t-1.5 -59t-0.5 -37q0 -181 -6.5 -355.5t-19.5 -333.5q-9 -109 -36.5 -211t-71 -192t-101.5 -164.5t-128 -128.5t-150 -83.5t-168 -29.5q-87 0 -150.5 33.5t-105 88.5t-62 125.5t-20.5 145.5
q0 117 29.5 220t74.5 204q9 20 19.5 38t20.5 31.5t18.5 21t14.5 7.5q7 0 7 -13zM513 611q4 -28 13 -53.5t24.5 -45t38.5 -31t56 -11.5q46 0 87.5 25t57.5 70q2 4 4.5 16t6 24.5t8.5 22t11 9.5q10 0 12 -12.5t2 -21.5q0 -34 -5.5 -74t-17.5 -81t-31 -79.5t-45 -68
t-59.5 -47.5t-75.5 -18q-67 0 -106 30.5t-58.5 75.5t-25 96.5t-5.5 94.5v17.5t1 38t3.5 68.5t6 110t9 160.5t13.5 221.5q1 13 2.5 26.5t5.5 23.5l66 166q4 10 8 18t12 8q4 0 6 -5t2 -28q0 -22 -2 -64.5t-6 -116.5t-10.5 -185t-15.5 -270q0 -12 0.5 -28t1.5 -32t2 -29.5
t3 -20.5zM1322 533q14 0 18 -9t4 -15q0 -75 -5.5 -158.5t-18 -168.5t-33 -167t-50.5 -154q-9 -21 -33.5 -39t-57.5 -33.5t-70.5 -27.5t-71.5 -20.5t-60.5 -13t-38.5 -4.5q-7 0 -14.5 2.5t-7.5 7.5q0 7 12 19t32 28.5t46.5 37t55.5 44.5q81 66 126.5 138.5t70 150.5t36.5 161
t27 171q1 7 3.5 15.5t6.5 16t9.5 13t13.5 5.5zM275 -618q27 33 47.5 57.5t37 44t29.5 35t26 31.5q4 4 7 4q4 0 11 -7q24 -24 61 -49t67 -45q24 28 40 48t28 35.5t22.5 28.5t23.5 27q4 4 7 4t12 -6q13 -10 24.5 -19t26 -20t33.5 -25.5t46 -34.5q13 -7 13 -13q0 -3 -3 -6
q-7 -9 -23.5 -29t-36 -43.5t-38.5 -46.5t-32 -38q-3 -4 -7 -4q-3 0 -11 5l-18 13.5t-32.5 24.5t-39.5 30.5t-39 31.5q-13 -15 -30.5 -35.5t-35.5 -41.5t-34 -40t-27 -32q-4 -4 -6 -4q-6 0 -13 7q-26 17 -58.5 41t-67.5 53q-12 9 -12 14q0 2 2 4z" />
    <glyph glyph-name="uniFEF7" unicode="&#xfef7;" horiz-adv-x="603" arabic-form="isolated" 
d="M28 220q2 0 12.5 -2.5t23.5 -5.5t26.5 -5.5t22.5 -2.5q7 0 9 3q15 64 26 130.5t11 133.5q0 19 -1.5 47.5t-3 61.5t-4 69t-4 69t-3 61t-1.5 47q0 39 7 80t18.5 83t25 83t26.5 79q7 19 15 37.5t13 18.5t5 -28q0 -20 -1.5 -45.5t-1.5 -45.5q0 -105 6.5 -206t6.5 -199
q0 -54 -3.5 -108.5t-15.5 -105.5q-9 -36 -18.5 -67t-21 -60.5t-24.5 -59t-28 -62.5q-2 -4 -4.5 -11t-2.5 -8q7 -1 14.5 -1.5t15.5 -0.5q38 0 81.5 9.5t80 29t61 50t24.5 72.5q0 61 -0.5 101t-1 67t-1.5 46l-2 38q-2 48 -4 108t-2 114q0 48 3.5 83t8.5 55q8 31 17.5 66
t19.5 68.5t20 64.5t19 54q5 14 11 23.5t13 9.5q2 0 3.5 -4.5t1.5 -16.5q-6 -86 -6 -168q0 -41 1.5 -89t4 -99t4 -103.5t1.5 -103.5q0 -81 -6.5 -159t-25.5 -144q-15 -51 -37.5 -101t-60.5 -103q-16 -22 -43.5 -51t-59 -54.5t-64 -43.5t-59.5 -18q-19 0 -33 8t-28 19
q-15 12 -35.5 31.5t-38.5 42t-31 45.5t-13 41q0 33 31 33zM62 1415q0 5 4.5 13.5t11.5 19t14 22t13 22.5q11 22 25.5 41.5t28.5 33.5q17 17 40 29t49 12q20 0 35 -17t15 -39q0 -10 -6 -23t-17 -13q-8 0 -15 3.5t-14 8t-15 8t-18 3.5q-9 0 -19.5 -4.5t-20 -12t-17 -16
t-11.5 -16.5q11 -12 26 -22.5t31 -18.5t32 -13t29 -5t27 9t28 17t24.5 13.5t19.5 9.5q14 7 24 7q2 0 5 -3t3 -5q0 -5 -2.5 -12t-7.5 -12q-10 -10 -19 -16t-20 -15q-31 -24 -57 -45t-50 -41q-12 -10 -26 -22l-28 -24t-26 -23t-18 -17q-12 -12 -20.5 -22t-16.5 -18
q-8 -10 -22 -10q-4 0 -5 4.5t-1 8.5q0 3 2 7.5t4 9.5q4 9 11.5 22.5t17 28.5t21 30.5t23.5 27.5q-13 5 -29 12.5t-30 17.5t-23.5 21t-9.5 23z" />
    <glyph glyph-name="uniFEF9" unicode="&#xfef9;" horiz-adv-x="603" arabic-form="isolated" 
d="M28 220q2 0 12.5 -2.5t23.5 -5.5t26.5 -5.5t22.5 -2.5q7 0 9 3q15 64 26 130.5t11 133.5q0 19 -1.5 47.5t-3 61.5t-4 69t-4 69t-3 61t-1.5 47q0 39 7 80t18.5 83t25 83t26.5 79q7 19 15 37.5t13 18.5t5 -28q0 -20 -1.5 -45.5t-1.5 -45.5q0 -105 6.5 -206t6.5 -199
q0 -54 -3.5 -108.5t-15.5 -105.5q-9 -36 -18.5 -67t-21 -60.5t-24.5 -59t-28 -62.5q-2 -4 -4.5 -11t-2.5 -8q7 -1 14.5 -1.5t15.5 -0.5q38 0 81.5 9.5t80 29t61 50t24.5 72.5q0 61 -0.5 101t-1 67t-1.5 46l-2 38q-2 48 -4 108t-2 114q0 48 3.5 83t8.5 55q8 31 17.5 66
t19.5 68.5t20 64.5t19 54q5 14 11 23.5t13 9.5q2 0 3.5 -4.5t1.5 -16.5q-6 -86 -6 -168q0 -41 1.5 -89t4 -99t4 -103.5t1.5 -103.5q0 -81 -6.5 -159t-25.5 -144q-15 -51 -37.5 -101t-60.5 -103q-16 -22 -43.5 -51t-59 -54.5t-64 -43.5t-59.5 -18q-19 0 -33 8t-28 19
q-15 12 -35.5 31.5t-38.5 42t-31 45.5t-13 41q0 33 31 33zM-16 -286q0 5 4.5 13.5t11.5 19t14 22t13 22.5q12 22 26 41.5t28 33.5q17 17 40.5 29t48.5 12q20 0 35 -16.5t15 -38.5q0 -11 -6 -24t-17 -13q-8 0 -15 3.5t-14 8t-15 8t-18 3.5q-9 0 -19.5 -4.5t-20 -12t-17 -16
t-10.5 -16.5q10 -11 25 -21.5t31.5 -18.5t32.5 -13t29 -5q12 0 25.5 9t28.5 17q13 7 23 12.5t21 10.5q6 3 13 4.5t11 1.5q2 0 5 -2.5t3 -4.5q0 -6 -2 -12.5t-7 -11.5q-11 -11 -19.5 -16.5t-20.5 -15.5q-31 -24 -57 -44.5t-49 -40.5q-12 -10 -26.5 -22t-28.5 -24.5t-26 -23
t-18 -17.5q-12 -11 -20.5 -21.5t-16.5 -18.5q-8 -10 -22 -10q-4 0 -5 4.5t-1 9.5q0 3 2 7t4 9q4 9 11.5 22.5t17 29t21 31t23.5 27.5q-13 4 -29 12t-30 17.5t-23.5 20.5t-9.5 23z" />
    <glyph glyph-name="uniFEFB" unicode="&#xfefb;" horiz-adv-x="603" arabic-form="isolated" 
d="M28 220q2 0 12.5 -2.5t23.5 -5.5t26.5 -5.5t22.5 -2.5q7 0 9 3q15 64 26 130.5t11 133.5q0 19 -1.5 47.5t-3 61.5t-4 69t-4 69t-3 61t-1.5 47q0 39 7 80t18.5 83t25 83t26.5 79q7 19 15 37.5t13 18.5t5 -28q0 -20 -1.5 -45.5t-1.5 -45.5q0 -105 6.5 -206t6.5 -199
q0 -54 -3.5 -108.5t-15.5 -105.5q-9 -36 -18.5 -67t-21 -60.5t-24.5 -59t-28 -62.5q-2 -4 -4.5 -11t-2.5 -8q7 -1 14.5 -1.5t15.5 -0.5q38 0 81.5 9.5t80 29t61 50t24.5 72.5q0 61 -0.5 101t-1 67t-1.5 46l-2 38q-2 48 -4 108t-2 114q0 48 3.5 83t8.5 55q8 31 17.5 66
t19.5 68.5t20 64.5t19 54q5 14 11 23.5t13 9.5q2 0 3.5 -4.5t1.5 -16.5q-6 -86 -6 -168q0 -41 1.5 -89t4 -99t4 -103.5t1.5 -103.5q0 -81 -6.5 -159t-25.5 -144q-15 -51 -37.5 -101t-60.5 -103q-16 -22 -43.5 -51t-59 -54.5t-64 -43.5t-59.5 -18q-19 0 -33 8t-28 19
q-15 12 -35.5 31.5t-38.5 42t-31 45.5t-13 41q0 33 31 33z" />
    <glyph glyph-name=".notdef" horiz-adv-x="684" 
d="M684 960v-960h-684v960h684zM627 57v846h-570v-846h570z" />
    <glyph glyph-name="glyph1" 
 />
    <glyph glyph-name="glyph2" 
 />
    <glyph glyph-name="space" unicode=" " horiz-adv-x="300" 
 />
    <glyph glyph-name="exclam" unicode="!" horiz-adv-x="573" 
d="M274 290l-32 4v39q0 98 -6.5 208.5t-16.5 225t-21.5 229t-21.5 220.5q15 8 37 18.5l44 21t41 20t28 14.5l47 -4q-6 -100 -12.5 -205t-10.5 -199q-6 -143 -15 -280.5t-9 -272.5zM178 106v10q8 6 30 17t48 22.5t50.5 20.5t36.5 11l69 -139l-6 -13q-6 -2 -26 -12t-43.5 -22
t-44.5 -23.5t-30 -17.5z" />
    <glyph glyph-name="quotedbl" unicode="&#x22;" horiz-adv-x="731" 
d="M139 784q-7 70 -12.5 126t-10 106t-10 98t-12.5 102q19 9 40 19.5t40.5 20.5t36 19t25.5 15l45 -4q-14 -118 -28 -232.5t-24 -235.5l-67 -39zM498 784q-7 70 -12.5 126t-10 106t-10 98t-12.5 102q19 9 40 19.5t40.5 20.5t35.5 19t25 15l45 -4q-12 -118 -26.5 -232.5
t-24.5 -235.5l-68 -39z" />
    <glyph glyph-name="numbersign" unicode="#" horiz-adv-x="1024" 
d="M655 0h-98l59 408h-264l-59 -408h-98l59 408h-199v96h213l41 291h-203v96h218l55 379h100l-55 -379h262l55 379h101l-56 -379h181v-96h-195l-43 -291h191v-96h-205zM367 504h264l41 291h-262z" />
    <glyph glyph-name="dollar" unicode="$" horiz-adv-x="1024" 
d="M471 39q-51 0 -102.5 8t-98 21t-84 30t-59.5 35q-2 25 -5 66.5t-6 85.5t-5 82.5t-2 56.5l61 14q18 -69 43 -124.5t60.5 -96t84 -64.5t113.5 -30v461q-64 22 -121.5 50.5t-101.5 66.5t-70 87.5t-26 112.5q0 76 30.5 132t77 95t103 62t108.5 33v94h88v-84q70 0 144 -9.5
t133 -29.5q2 -29 4.5 -63.5t4.5 -69.5t3.5 -67t1.5 -56l-64 -10q-34 106 -88 159t-139 62v-420q76 -27 142 -57t114.5 -69t76.5 -91t28 -123q0 -89 -33.5 -150.5t-85.5 -102t-116.5 -62.5t-125.5 -31v-160h-88v156zM770 338q0 42 -16 74t-44.5 57.5t-67 45.5t-83.5 38v-430
q49 6 88.5 24.5t66.5 47t41.5 65t14.5 78.5zM295 956q0 -41 13 -71t36.5 -52.5t56 -39t70.5 -31.5v383q-33 -8 -64.5 -23.5t-56.5 -39.5t-40 -55.5t-15 -70.5z" />
    <glyph glyph-name="percent" unicode="%" horiz-adv-x="1356" 
d="M395 1270q55 0 103.5 -18.5t84 -53t56 -84t20.5 -110.5q0 -57 -22 -108.5t-62 -90t-95.5 -61.5t-121.5 -23q-63 0 -112.5 21.5t-83.5 57.5t-52 84t-18 101q0 67 24.5 120t66 90t96.5 56t116 19zM203 31l860 1247l82 -49l-864 -1252zM238 1022q0 -117 44 -172t113 -55
q26 0 47.5 9.5t37 30.5t24 55.5t8.5 84.5q0 221 -158 221q-17 0 -37 -6t-37.5 -24t-29.5 -52.5t-12 -91.5zM999 541q55 0 103.5 -18.5t84.5 -53.5t56.5 -84.5t20.5 -110.5q0 -57 -22.5 -108t-62 -89.5t-95 -61.5t-121.5 -23q-63 0 -112.5 21.5t-84 57.5t-52.5 84t-18 101
q0 67 24.5 120t66.5 90t97 56t115 19zM842 293q0 -117 44 -172t113 -55q26 0 47.5 9.5t37 30.5t24 55.5t8.5 84.5q0 221 -158 221q-17 0 -37 -6t-37.5 -24.5t-29.5 -52.5t-12 -91z" />
    <glyph glyph-name="ampersand" unicode="&#x26;" horiz-adv-x="1649" 
d="M1376 -17q-48 0 -89 11.5t-78.5 33t-74.5 51.5t-77 66q-87 -74 -202 -119t-263 -45q-106 0 -193.5 26t-150 75t-97 118.5t-34.5 155.5q0 57 16 104.5t43 85.5t61.5 67.5t72 51.5t74.5 37.5t69 25.5q-29 33 -51.5 63.5t-38 62t-23.5 64t-8 70.5q0 43 19.5 81.5t52.5 71
t76.5 58t92 43t98 27t95.5 9.5q40 0 75.5 -8t65.5 -21t55.5 -29.5t45.5 -33.5v-8l-97 -105h-28q-11 12 -34 30t-53.5 35.5t-67 29.5t-73.5 12q-27 0 -57 -8.5t-55 -26.5t-41.5 -46t-16.5 -67q0 -40 12 -73.5t38 -69.5t63.5 -77.5t81.5 -85.5t93.5 -91t99.5 -94l225 -210
q27 49 45.5 105.5t30.5 114.5t17 113.5t5 103.5q-13 0 -44 -1t-68.5 -2.5t-75.5 -4.5t-66 -7l-12 19q14 19 26.5 38.5t18.5 30.5h633l6 -9q-8 -9 -20.5 -28.5t-20.5 -41.5q-17 1 -41.5 2.5t-52 2.5l-55 2t-50.5 1h-26q-3 -58 -15 -122.5t-33.5 -130.5t-53.5 -130.5
t-75 -122.5q52 -53 106.5 -93t104 -66.5t91 -39.5t67.5 -13h51l2 -46q-21 -5 -53 -9.5t-64 -7.5t-59.5 -4.5t-40.5 -1.5zM508 670q-22 -8 -57.5 -27.5t-69 -54.5t-58 -86.5t-24.5 -122.5q0 -69 24 -124t67.5 -93t104.5 -58.5t136 -20.5q123 0 211 32.5t151 88.5
q-47 41 -96.5 87.5t-98.5 93.5t-95 91.5t-84 82.5l-67 67z" />
    <glyph glyph-name="quotesingle" unicode="'" horiz-adv-x="369" 
d="M139 784q-7 70 -12.5 126t-10 106t-10 98t-12.5 102q19 9 40 19.5t40.5 20.5t36 19t25.5 15l45 -4q-14 -118 -28 -232.5t-24 -235.5l-67 -39z" />
    <glyph glyph-name="parenleft" unicode="(" horiz-adv-x="614" 
d="M160 512q0 77 11 158.5t31 161.5t49.5 155.5t67 140.5t82 117.5t95.5 86.5l45 -40q-45 -41 -86 -118.5t-72.5 -177.5t-50.5 -215t-19 -230q0 -137 19.5 -258t52.5 -222t76.5 -179.5t91.5 -130.5l-137 -108q-126 157 -191 372t-65 487z" />
    <glyph glyph-name="parenright" unicode=")" horiz-adv-x="614" 
d="M455 456q0 -116 -24 -239t-68 -235.5t-106 -203.5t-138 -142l-45 41q45 40 86 117.5t72.5 177.5t50 215t18.5 230q0 137 -19.5 258t-52.5 221.5t-76.5 179t-91.5 131.5l138 108q125 -157 190.5 -371t65.5 -488z" />
    <glyph glyph-name="asterisk" unicode="*" horiz-adv-x="997" 
d="M537 1062q30 19 57 35.5t57.5 35.5t67 41.5t84.5 52.5q11 -22 25.5 -42.5t25.5 -31.5l4 -27q-45 -13 -82.5 -26t-72.5 -27.5t-70 -31t-74 -36.5q77 -35 148 -66t155 -59l-8 -27q-14 -8 -28 -27t-25 -42q-35 22 -65.5 41t-61.5 38t-64 38t-73 40q1 -40 3 -72.5t4.5 -63.5
t6 -64t8.5 -75q-19 -8 -31.5 -15t-21.5 -13t-16.5 -12t-16.5 -12l-47 4q5 46 8.5 86t6.5 78t5.5 76.5t4.5 80.5q-42 -23 -73.5 -40.5t-59.5 -34.5t-56 -35.5t-63 -42.5q-13 21 -28.5 45t-27.5 36l-8 22q39 14 73.5 27t68.5 27t68 28.5t73 31.5q-31 15 -60.5 28.5t-62.5 27
t-72 27t-88 29.5l8 24q16 18 32.5 42.5t29.5 48.5q33 -28 60 -49.5t55 -40.5t59.5 -37.5t73.5 -40.5q-1 41 -3 73t-5 62t-6.5 60.5t-8.5 68.5q38 18 56 33.5t34 26.5l47 -4q-5 -46 -10 -86t-9 -78t-7 -76t-4 -80z" />
    <glyph glyph-name="plus" unicode="+" horiz-adv-x="1024" 
d="M559 1020v-383h389v-94h-389v-379h-96v379h-387v94h387v383h96z" />
    <glyph glyph-name="comma" unicode="," horiz-adv-x="471" 
d="M106 -264l-16 8q8 42 18 96t20 111t19 112t15 97q13 3 33.5 8t43 10.5l45 11t40.5 10.5l28 -4q-15 -51 -35 -108.5t-42.5 -115t-46 -112.5t-46.5 -101z" />
    <glyph glyph-name="hyphen" unicode="-" horiz-adv-x="678" 
d="M78 448q29 1 71.5 5.5t90.5 11.5t98.5 15.5t96 16.5t82.5 15.5t58 12.5l21 -16l-4 -109q-120 -13 -203 -23.5t-138 -19t-87 -15.5t-51 -13l-29 14z" />
    <glyph glyph-name="period" unicode="." horiz-adv-x="471" 
d="M104 123v10q9 7 34 18.5t53.5 22.5t55.5 19.5t40 10.5l75 -147l-6 -13q-8 -2 -30 -12.5t-47.5 -24t-48.5 -26.5t-33 -20z" />
    <glyph glyph-name="slash" unicode="/" horiz-adv-x="756" 
d="M0 -489l664 1977l92 -31l-666 -1975z" />
    <glyph glyph-name="zero" unicode="0" horiz-adv-x="1024" 
d="M260 612q0 -112 13.5 -212.5t44 -176t80.5 -120t124 -44.5q59 0 104.5 29t76 94.5t46 172t15.5 261.5q0 127 -12.5 232t-42.5 180t-79.5 116.5t-123.5 41.5q-34 0 -65.5 -8t-59 -30t-50 -62t-38.5 -104t-24.5 -155t-8.5 -215zM76 578q0 156 22 283.5t74.5 218t139 140.5
t216.5 50q86 0 150.5 -25t111 -68t76.5 -100t48 -122t25 -134t7 -135q0 -149 -21.5 -278t-73.5 -224t-139 -149.5t-218 -54.5q-80 0 -142 27.5t-108.5 74t-78.5 107.5t-52 127.5t-28.5 134t-8.5 127.5z" />
    <glyph glyph-name="one" unicode="1" horiz-adv-x="1024" 
d="M451 164l2 75q1 31 1.5 64t0.5 53v779q-63 -34 -123.5 -70t-120.5 -70l-29 15v77l410 193h43q-1 -42 -2 -95t-2 -102.5t-1.5 -89t-0.5 -55.5v-362t1 -239q1 -54 1 -97v-76q1 -32 9.5 -50.5t22 -29t31.5 -14.5t39 -7l137 -14v-55q-27 0 -75.5 1t-100.5 2t-98 2t-68 1
q-48 0 -100.5 -1t-100 -2t-84.5 -2t-53 -1v55l160 14q22 3 40 6t31 12.5t20.5 28.5t9.5 54z" />
    <glyph glyph-name="two" unicode="2" horiz-adv-x="1024" 
d="M508 150q78 0 152.5 1t134.5 7q29 3 41.5 12.5t15.5 26.5l18 88l60 -9q-2 -24 -4.5 -59.5t-5 -74.5t-5 -76t-4.5 -62l-18 -14q-16 1 -47 2t-71 2t-86 2.5t-91 2t-85.5 1t-70.5 0.5h-348l-16 59q69 60 133 122.5t133 140.5q68 74 122.5 139.5t92.5 130t58 133t20 149.5
t-25 134.5t-64 86t-86 45.5t-91 13q-60 0 -111.5 -18.5t-99.5 -44.5l-23 6l-31 51q37 25 78 47.5t84.5 39t90 26.5t94.5 10q72 0 138 -21t117 -65t81 -111t30 -158q0 -85 -32.5 -165t-87 -158t-125.5 -155.5t-148 -157.5q-31 -31 -61 -61.5t-52 -49.5l-20 -18h215z" />
    <glyph glyph-name="three" unicode="3" horiz-adv-x="1024" 
d="M528 696q63 -7 124.5 -28.5t110.5 -59.5t79 -93t30 -130q0 -82 -27 -148t-74.5 -119.5t-113 -95t-143 -75t-164 -59t-176.5 -46.5l-31 52l9 16q118 33 217 71t171 88.5t112 117t40 157.5q0 72 -30 121.5t-84 80t-130 44.5t-169 14l-11 70q85 29 153 58.5t115 66t72 83.5
t25 111q0 45 -15.5 77t-43 51.5t-64.5 28.5t-80 9q-69 0 -134 -21.5t-116 -52.5l-24 7l-31 51q85 63 177.5 95t195.5 32q58 0 113.5 -14.5t99 -45t70 -78t26.5 -114.5q0 -72 -26.5 -122.5t-67 -87t-90 -62t-95.5 -46.5v-4z" />
    <glyph glyph-name="four" unicode="4" horiz-adv-x="1024" 
d="M768 385q0 -91 0.5 -162t2.5 -122l3 -105l-164 -47l-24 16l4 132q2 60 3 135.5t1 156.5v17h-569l-17 67l572 756l149 53l39 -4l6 -743l139 4l84 2l9 -21l-45 -114h-193v-21zM592 1100q-106 -137 -212 -282.5t-212 -282.5h424v565z" />
    <glyph glyph-name="five" unicode="5" horiz-adv-x="1024" 
d="M256 758q28 5 63.5 8.5t75.5 3.5q127 0 219.5 -29t152 -79.5t88 -119.5t28.5 -149q0 -111 -48.5 -203.5t-135 -165t-206.5 -123.5t-264 -79l-30 53l4 16q120 27 213 72t156.5 106.5t96.5 138t33 167.5q0 126 -84 197t-249 71q-60 0 -106 -5t-91 -17l-29 24l17 160
q8 93 13 149t8 89l4.5 49.5t2.5 29.5q4 31 6 63.5t5 69.5l270 -4h91t73.5 0.5t61 1.5t53.5 2q23 2 34 10t17 29l14 56l68 -4q-3 -27 -6 -60.5t-6 -68t-5.5 -67.5t-3.5 -58q-46 0 -90 1.5t-92.5 3.5t-104.5 3.5t-127 1.5h-165l-13 -152z" />
    <glyph glyph-name="six" unicode="6" horiz-adv-x="1024" 
d="M803 1294q-102 -27 -197.5 -79.5t-170 -135.5t-121 -200.5t-50.5 -274.5q29 22 66.5 45.5t79.5 43t86.5 32t87.5 12.5q91 0 160.5 -30t116 -78.5t70 -110t23.5 -123.5q0 -81 -27.5 -157.5t-82.5 -136t-137 -96t-191 -36.5q-105 0 -186 43.5t-136 121t-83.5 184.5
t-28.5 235q0 102 25.5 196t72 176.5t111 152.5t142.5 125t167.5 94t185.5 59l23 -41zM526 608q-35 0 -71 -8.5t-70 -22.5t-64.5 -32t-54.5 -37q1 -38 8 -87t21.5 -100t38 -99.5t58 -87t80.5 -62t106 -23.5q41 0 77.5 16.5t63.5 49.5t43 82t16 114q0 67 -15.5 121.5t-47 93.5
t-78.5 60.5t-111 21.5z" />
    <glyph glyph-name="seven" unicode="7" horiz-adv-x="1024" 
d="M471 1102h-47t-62 -1t-67.5 -2t-65.5 -3q-17 -2 -25 -10t-11 -29l-13 -82l-69 4q2 22 5 59.5t6 78.5t5.5 80t3.5 63q16 0 36 -1.5t36 -1.5q31 -1 72.5 -2t88.5 -2t97 -1.5t98 -0.5h385l31 -30q-16 -28 -38 -71t-48.5 -98t-57 -119t-62.5 -133t-65 -141t-65 -142
q-113 -249 -240 -537l-112 26l-6 21l526 1075h-336z" />
    <glyph glyph-name="eight" unicode="8" horiz-adv-x="1024" 
d="M541 1270q74 0 134 -19.5t102 -53t64.5 -78t22.5 -93.5q0 -47 -13 -87.5t-39.5 -77t-68 -70.5t-98.5 -68l-20 -12q73 -41 130 -80.5t96 -82.5t59 -91.5t20 -106.5q0 -89 -39.5 -158t-104 -116t-146 -71.5t-165.5 -24.5q-78 0 -148 22t-122 62.5t-82.5 98t-30.5 128.5
q0 55 19 102t51.5 87t76 73.5t91.5 60.5l67 39q-43 27 -88 56.5t-82.5 66.5t-61.5 84t-24 109q0 70 32.5 125.5t87.5 94.5t127.5 60t152.5 21zM532 74q64 0 112 19t79.5 49.5t47 68t15.5 74.5q0 43 -10.5 79t-44 73t-97.5 78.5t-171 96.5l-27 -16q-90 -57 -128 -122
t-38 -148q0 -37 13 -81t43.5 -82t81 -63.5t124.5 -25.5zM485 1186q-48 0 -87.5 -12.5t-68 -34.5t-44 -51t-15.5 -62q0 -44 16.5 -78t51.5 -65t88.5 -63t128.5 -72l23 12q60 34 94.5 87t34.5 134q0 48 -18.5 86.5t-49.5 64.5t-71 40t-83 14z" />
    <glyph glyph-name="nine" unicode="9" horiz-adv-x="1024" 
d="M70 846q0 79 27.5 155.5t82.5 136t137 96t191 36.5q108 0 190 -45t136.5 -120t82 -172t27.5 -202q0 -179 -57 -315.5t-153 -236t-222 -166.5t-264 -107l-33 39v14q64 23 129.5 54.5t126 74t114 95.5t93.5 119.5t64 146t26 174.5q-29 -20 -68.5 -44t-84.5 -44.5t-92 -34
t-89 -13.5q-96 0 -165 32.5t-113 84t-65 115.5t-21 127zM500 608q30 0 66 9.5t72 24.5t69.5 33t58.5 36q-1 38 -8 88t-21.5 103.5t-38.5 105.5t-59 93t-83 66t-110 25q-44 0 -81 -17.5t-63.5 -52t-41 -85.5t-14.5 -117q0 -62 14 -118.5t44.5 -99.5t78.5 -68.5t117 -25.5z
" />
    <glyph glyph-name="colon" unicode=":" horiz-adv-x="471" 
d="M104 123v10q9 7 34 18.5t53.5 22.5t55.5 19.5t40 10.5l75 -147l-6 -13q-8 -2 -30 -12.5t-47.5 -24t-48.5 -26.5t-33 -20zM104 728v9q10 7 34.5 18.5t53 22.5t55 19.5t40.5 10.5l75 -145l-6 -14q-8 -2 -30 -12.5t-47.5 -24t-48.5 -26.5t-33 -20z" />
    <glyph glyph-name="semicolon" unicode=";" horiz-adv-x="481" 
d="M104 728v9q10 7 34.5 18.5t53 22.5t55 19.5t40.5 10.5l75 -145l-6 -14q-8 -2 -30 -12.5t-47.5 -24t-48.5 -26.5t-33 -20zM106 -264l-16 8q8 42 18 96t20 111t19 112t15 97q13 3 33.5 8t43 10.5l45 11t40.5 10.5l28 -4q-15 -51 -35 -108.5t-42.5 -115t-46 -112.5
t-46.5 -101z" />
    <glyph glyph-name="less" unicode="&#x3c;" horiz-adv-x="1024" 
d="M76 649l872 404v-105l-776 -354l776 -379v-106l-872 423v117z" />
    <glyph glyph-name="equal" unicode="=" horiz-adv-x="1024" 
d="M948 434v-94h-872v94h872zM948 840v-95h-872v95h872z" />
    <glyph glyph-name="greater" unicode="&#x3e;" horiz-adv-x="1024" 
d="M948 532l-872 -423v106l776 379l-776 354v105l872 -404v-117z" />
    <glyph glyph-name="question" unicode="?" horiz-adv-x="834" 
d="M743 999q0 -57 -18 -101t-53 -85.5t-86 -86.5t-116 -103q-35 -32 -46.5 -58t-11.5 -55q0 -19 8 -37.5t20 -35t27 -30.5t29 -23l-2 -16q-17 -8 -33 -14.5t-35 -18.5q-29 13 -60 32.5t-59 41.5t-50 44t-34 40l4 23q18 11 41.5 29.5t49 40.5t51 46.5t47.5 47.5
q38 40 66.5 74t48 68t29 70.5t9.5 81.5q0 30 -13.5 59t-37 52t-55.5 37.5t-68 14.5q-78 0 -141 -33t-111 -79l-22 3l-29 41q27 30 65 65.5t83 65.5t96 50.5t104 20.5q63 0 118 -21t96.5 -58t65 -86.5t23.5 -106.5zM287 79l-4 9q5 6 23 21.5t39.5 33t43 33.5t33.5 23
l102 -124l-2 -13q-4 -3 -19.5 -17t-34.5 -31t-37.5 -33t-27.5 -23z" />
    <glyph glyph-name="at" unicode="@" horiz-adv-x="1606" 
d="M1065 570q-4 -11 -11.5 -35t-15 -52t-13 -56.5t-5.5 -49.5q0 -39 14 -53t27 -14q27 0 63 14t74 40.5t74.5 63t65 82t46 98t17.5 110.5q0 97 -41.5 182.5t-117 149t-181.5 100t-236 36.5q-122 0 -233.5 -44t-196.5 -123.5t-135.5 -190t-50.5 -242.5q0 -130 37 -238
t112 -186t188 -121t265 -43q76 0 153.5 21t149.5 56t136.5 80t115.5 93l49 -46q-48 -48 -118.5 -102t-156 -99.5t-181.5 -76t-195 -30.5q-153 0 -278 43t-214 125t-137.5 200.5t-48.5 268.5q0 108 31.5 206t88 182t134.5 152t171 115.5t198 73.5t215 26q68 0 138.5 -15.5
t137 -45t124.5 -71.5t101.5 -96t69 -118t25.5 -137q0 -77 -22.5 -150t-61.5 -137.5t-90.5 -118.5t-109.5 -93t-118.5 -60.5t-116.5 -21.5q-23 0 -47 5t-43.5 19.5t-32.5 40t-14 67.5q0 14 1.5 34t4.5 38q-39 -57 -77 -95t-72.5 -61.5t-64 -33.5t-50.5 -10q-18 0 -44 14
t-51 44t-42.5 76t-17.5 110q0 61 21 118t55.5 106.5t78.5 91t89.5 71t89 45.5t77.5 16q15 0 34.5 -4t39.5 -11t39.5 -15t34.5 -16l6 15l127 29h35zM680 329q13 0 34 14t45 37.5t49.5 54.5t48 64t40.5 66.5t27 62.5l43 140q-42 38 -92 56.5t-89 18.5q-5 0 -33 -20
t-59.5 -62.5t-56.5 -108.5t-25 -158q0 -44 6.5 -75t16.5 -51t22 -29.5t23 -9.5z" />
    <glyph glyph-name="A" unicode="A" horiz-adv-x="1397" 
d="M1049 106q0 14 -9.5 46.5t-25 77t-37 98.5t-45.5 111q-30 0 -76 -0.5t-99 -0.5t-109 -1t-106 -1t-89.5 -0.5t-59.5 -0.5q-27 -60 -48.5 -112.5t-37 -94.5t-23.5 -71.5t-8 -42.5q0 -38 22.5 -50.5t70.5 -15.5l34 -2v-52q-22 1 -51.5 2t-61 2t-61.5 1.5t-53 0.5
q-14 0 -38 -0.5t-50.5 -1.5t-50.5 -2t-37 -2v52l47 4q28 3 46.5 19t37.5 45q15 23 40.5 74t67 141t102 224.5t146.5 324.5q18 40 41.5 94t44.5 103q13 29 25 58t25 59l-15 30l8 16l175 46q33 -93 55.5 -154t40.5 -108t35 -89.5t39.5 -98.5t54 -135t78.5 -199q15 -39 35 -87
t42.5 -98t46 -97.5t46.5 -85t43.5 -60.5t37.5 -24l52 -2v-52q-27 1 -55.5 2l-57 2t-55.5 1.5t-49 0.5q-19 0 -52 -0.5t-71 -1.5t-77 -2t-69 -2v52l62 4q24 2 39 7.5t23.5 13t11 16.5t2.5 19zM678 1082q-63 -134 -127 -279t-121 -283q53 -1 117 -2t128.5 -1.5t124.5 -0.5h105
q-24 63 -52.5 136.5t-58.5 149t-60 148t-56 132.5z" />
    <glyph glyph-name="B" unicode="B" horiz-adv-x="1206" 
d="M291 1251q31 1 67.5 2t74.5 1.5t75.5 0.5h69.5q106 0 190 -14.5t141.5 -46.5t88 -82t30.5 -120q0 -67 -24.5 -118.5t-64.5 -89.5t-91 -63.5t-103 -39.5q75 -5 141.5 -28t115.5 -62.5t77.5 -94.5t28.5 -125q0 -102 -41 -174.5t-110 -118t-158 -66.5t-185 -21
q-51 0 -93 1.5t-81 3t-77.5 3t-81.5 1.5q-15 0 -42 -0.5t-56.5 -1.5t-56 -2t-40.5 -2v50l68 8q20 2 34 6.5t24 15.5t15 30t7 50q3 46 3.5 133.5t0.5 226.5v300q0 43 -1 91t-2.5 89t-3 70t-2.5 35q-4 32 -10 51.5t-15.5 30.5t-25 15t-37.5 5l-63 4v52q29 -1 59.5 -2t59 -2
t53 -1.5t41.5 -0.5zM412 90q38 -11 91.5 -16.5t129.5 -5.5q61 0 114 18t92 54.5t61 91t22 128.5q0 79 -23.5 132t-67.5 84.5t-107 44.5t-142 13q-48 0 -86.5 -2t-83.5 -6v-536zM547 707q51 0 103 12.5t93 43.5t67 82t26 129q0 72 -29.5 113.5t-72.5 63t-93 27.5t-90 6
q-17 0 -40.5 -0.5t-45.5 -1.5l-53 -2v-473h135z" />
    <glyph glyph-name="C" unicode="C" horiz-adv-x="1339" 
d="M735 -19q-147 0 -264.5 47t-199.5 129.5t-125.5 194.5t-43.5 241q0 93 28.5 180.5t79.5 163.5t122 139.5t156.5 108.5t181.5 70t198 25q94 0 182 -10.5t160 -29.5q0 -29 2.5 -70t5 -84t5 -82t2.5 -63l-64 -4q-16 68 -45 115.5t-70 77t-93.5 43t-116.5 13.5
q-62 0 -126.5 -11.5t-125.5 -37t-114.5 -67t-93.5 -102.5t-63.5 -142.5t-23.5 -186.5q0 -109 22 -194t59 -148.5t86.5 -108t105 -72t113 -40t111.5 -12.5q100 0 167.5 21t112.5 60.5t71.5 96t44.5 127.5l63 -3q0 -37 -4 -84t-9.5 -91t-11 -78t-8.5 -45q-100 -42 -216 -64.5
t-261 -22.5z" />
    <glyph glyph-name="D" unicode="D" horiz-adv-x="1511" 
d="M412 514q0 -92 0.5 -153.5t1.5 -106.5t2 -80t2 -74q21 -5 52 -9t64 -7t64.5 -5t54.5 -2q124 0 228 33.5t179.5 101.5t118 172t42.5 244q0 149 -45.5 254.5t-130 172.5t-206 98t-272.5 31h-30t-40.5 -0.5t-43 -1.5t-37.5 -2q-1 -31 -2 -67t-1.5 -80t-0.5 -98v-121v-300z
M594 1262q108 0 210 -12.5t192.5 -41.5t166.5 -76t130.5 -115.5t85 -161t30.5 -212.5q0 -165 -52.5 -287t-151 -202.5t-240.5 -120t-322 -39.5q-45 0 -93 1t-93 2t-83 2t-61 1t-64.5 -1t-83.5 -2l-104 -3v52l86 6q19 1 34.5 5.5t26.5 16t17 31t6 49.5q1 43 3 132t2 228v300
q0 43 -1.5 89.5t-3 86.5t-3.5 70t-3 41q-3 31 -9.5 49.5t-16.5 29t-23.5 14.5t-30.5 5l-98 6v52q23 -1 54 -2t64.5 -2t67 -1.5t62.5 -0.5q69 5 146.5 8t152.5 3z" />
    <glyph glyph-name="E" unicode="E" horiz-adv-x="1169" 
d="M596 1251q136 0 224 1.5t130 9.5l25 -13v-300l-66 -3q-12 74 -31.5 131.5t-58.5 77.5q-26 11 -80 17t-129 6h-194q-2 -52 -3 -148.5t-1 -250.5v-99h479l6 -14q-8 -17 -14 -33.5t-13 -39.5q-100 8 -182 9.5t-145 1.5h-131v-529h276q72 0 120.5 6t74.5 17q21 10 37 28
t27 40.5t18.5 48t11.5 51.5l8 54l70 -4l-19 -316l-24 -11q-42 7 -123 9t-215 2h-314q-7 0 -28 -0.5t-50 -1t-62 -1.5t-64 -1.5t-56.5 -1t-38.5 -0.5v52l107 8q19 1 31.5 5.5t19.5 16t10 30t4 48.5q2 43 3.5 132t1.5 228v300q0 43 -1 91t-2.5 89t-3 70t-2.5 35q-2 31 -6 50
t-11.5 30.5t-19.5 16t-30 5.5l-64 4v52q8 0 28.5 -0.5t47 -1t55.5 -1.5t55 -1.5t45.5 -1t26.5 -0.5h240z" />
    <glyph glyph-name="F" unicode="F" horiz-adv-x="1051" 
d="M416 1178q-2 -52 -3 -148.5t-1 -250.5v-147h483l6 -14q-8 -17 -14 -33.5t-13 -39.5q-100 8 -184 9.5t-147 1.5h-131v-139t0.5 -117t1.5 -89.5t2 -56.5q2 -30 8 -49t17 -30.5t27 -16t38 -6.5q24 -2 50.5 -3.5t51.5 -2.5v-52q-30 1 -69.5 2t-80.5 2t-79 1.5t-64 0.5
q-10 0 -39.5 -0.5t-65 -1.5l-71 -2t-57.5 -2v52l88 6q19 1 31 6t18.5 16.5t9.5 31t4 48.5q2 43 3.5 132t1.5 228v300q0 43 -1 91t-2.5 89t-3 70t-2.5 35q-4 32 -8 51.5t-11 30.5t-19 15t-33 5l-60 4v52q8 0 28.5 -0.5t46.5 -1t55 -1.5t54.5 -1.5t45 -1t26.5 -0.5h242
q133 0 212.5 1.5t121.5 9.5l24 -13q0 -15 0.5 -51.5t1.5 -80.5t1.5 -89.5t0.5 -78.5l-69 -3q-12 75 -30.5 130.5t-59.5 78.5q-26 11 -71.5 17t-117.5 6h-194z" />
    <glyph glyph-name="G" unicode="G" horiz-adv-x="1518" 
d="M1280 102q-44 -21 -103.5 -42.5t-132 -39t-156.5 -28.5t-177 -11q-146 0 -259 47t-191 129.5t-118.5 194.5t-40.5 241q0 96 30.5 184.5t84.5 165t129 138.5t163.5 106.5t187.5 68.5t202 24q43 0 89 -3t92 -8t89.5 -12t81.5 -15q1 -9 3.5 -40t5 -73.5t4.5 -92.5t2 -97
l-66 -4q-19 65 -46 112.5t-69.5 78t-104.5 45.5t-151 15q-64 0 -128.5 -13.5t-124.5 -41.5t-112.5 -71.5t-91 -104t-61 -138.5t-22.5 -174q0 -118 23 -206t63 -151.5t93 -105t112.5 -66t123 -34t123.5 -9.5q38 0 78.5 4.5t79 12t73 16.5t60.5 17q0 40 -0.5 90t-1.5 94.5
t-2 76.5t-2 37q-3 32 -12 51.5t-22 30t-29.5 14.5t-34.5 5l-78 5v52q20 0 59 -1t81.5 -1.5t79.5 -1.5t52 -1q37 0 66 0.5t54 1t48 1.5t47 2v-52q-35 0 -57.5 -5.5t-36.5 -17.5t-20.5 -32.5t-8.5 -50.5q0 -18 -1 -56.5t-2 -82.5t-2 -86t-1 -69z" />
    <glyph glyph-name="H" unicode="H" horiz-adv-x="1552" 
d="M412 595v-81q0 -150 1 -236t3 -124q2 -30 7.5 -50t16 -31.5t26 -16.5t36.5 -6l86 -4v-52q-29 1 -66.5 2t-73.5 2t-67 1.5t-47 0.5q-26 0 -71.5 -1.5t-90.5 -1.5l-111 -3v52l82 4q21 1 37.5 5.5t28.5 15.5t18 31t6 52q1 43 3 132t2 228v300q0 43 -1 91t-2.5 89t-3 70
t-2.5 35q-4 32 -9.5 51.5t-15 30.5t-24.5 15t-37 5l-65 4v52q32 -1 69 -2t71.5 -2t63.5 -1.5t44 -0.5q37 0 68 0.5t60.5 1.5t57.5 2t59 2v-52l-65 -4q-23 -1 -37.5 -5t-24 -15t-15 -30.5t-9.5 -51.5q-1 -5 -2 -34t-2.5 -70.5t-2.5 -89.5t-1 -91v-146h729v146q0 43 -1 91
t-2.5 89.5t-2.5 70.5t-2 34q-4 32 -10 51.5t-15.5 30.5t-24 15t-36.5 5l-66 4v52q30 -1 58.5 -2t57.5 -2t61 -1.5t69 -0.5q15 0 44 0.5t63.5 1.5t71.5 2t69 2v-52l-66 -4q-23 -1 -37.5 -5t-24 -15t-15 -30.5t-9.5 -51.5q-1 -5 -2 -34t-2.5 -70.5t-2.5 -89.5t-1 -91v-300
q0 -150 1 -236t3 -124q2 -30 8 -50t17 -31.5t27 -16.5t38 -6l82 -4v-52q-78 2 -149.5 4t-122.5 2q-16 0 -47 -0.5t-67.5 -1.5t-73.5 -2t-66 -2v52l86 4q21 1 36.5 5.5t26 16t16.5 31t7 51.5q2 43 3 132t1 228v81h-729z" />
    <glyph glyph-name="I" unicode="I" horiz-adv-x="647" 
d="M588 46v-52q-29 1 -66.5 2t-73.5 2t-67 1.5t-47 0.5q-25 0 -58 -0.5t-70 -1.5t-76.5 -2t-78.5 -2v52l92 4q22 1 38.5 6t27 16.5t16 31.5t7.5 50q2 43 3 132t1 228v300q0 43 -1 91t-2 89t-2.5 70t-2.5 35q-5 31 -10.5 50.5t-15 30.5t-23.5 15.5t-36 5.5l-90 4v52
q25 -1 65 -2t81 -2t76.5 -1.5t50.5 -0.5q75 0 138.5 2t123.5 4v-52l-86 -4q-21 -1 -35 -5.5t-23 -15.5t-14.5 -30.5t-9.5 -50.5q-1 -5 -2 -34t-2.5 -70.5t-2.5 -89.5t-1 -91v-300q0 -150 1 -236t3 -124q2 -30 7.5 -50t16 -31.5t26 -16.5t36.5 -6z" />
    <glyph glyph-name="J" unicode="J" horiz-adv-x="618" 
d="M397 470q0 -78 3 -170.5t3 -207.5q0 -214 -84 -341.5t-264 -181.5l-28 56q100 45 147 152.5t47 255.5v781q0 43 -1 91t-2.5 89.5t-2.5 70.5t-2 34q-4 31 -10 50.5t-16 30.5t-24.5 15.5t-35.5 5.5l-88 4v52q21 0 60 -1t81 -2t79 -2t52 -1q76 0 139 2t123 4v-52l-84 -4
q-21 -1 -35 -5.5t-23.5 -15.5t-15 -30.5t-9.5 -50.5q-1 -6 -2.5 -35t-3 -70t-2.5 -89t-1 -91v-344z" />
    <glyph glyph-name="K" unicode="K" horiz-adv-x="1296" 
d="M475 610q-17 -14 -34 -29.5t-29 -29.5v-155t0.5 -113.5t1.5 -78.5t2 -50q2 -30 7.5 -50t16 -31.5t26 -16.5t38.5 -6l82 -4v-52q-20 0 -55.5 1t-75.5 2t-78.5 2t-63.5 1q-16 0 -56 -1.5t-85 -1.5l-111 -3v52l82 6q39 2 62.5 22.5t25.5 79.5q2 43 3.5 132t1.5 228v300
q0 43 -1 91t-2.5 89t-3 70t-2.5 35q-4 32 -9.5 51.5t-15 30.5t-24.5 15t-37 5l-63 4v52q20 0 55.5 -1t73 -2t71 -2t48.5 -1q75 0 131.5 3t111.5 3v-52l-65 -4q-22 -1 -36.5 -5.5t-24 -16t-15 -30.5t-8.5 -50q-1 -5 -2 -34t-2.5 -70.5t-2.5 -89.5t-1 -91v-149l91 81
q53 48 114 104.5t117.5 109t102 95.5t68.5 66t38 40.5t15 26.5q0 6 -9.5 9.5t-22.5 5t-27.5 2t-24.5 0.5v52q23 0 51 -1t55 -2t50 -2t37 -1q16 0 36.5 1t43 2l45 2t43.5 1v-52l-35 -4q-20 -2 -38.5 -9t-47.5 -24q-48 -28 -116 -86t-146 -131q-15 -14 -35 -32.5t-49.5 -45
t-70.5 -63.5t-97 -88q103 -131 183.5 -227.5t134.5 -162.5q51 -61 98 -113t90 -90t80 -59.5t69 -21.5h41v-46q-37 -8 -81 -12.5t-89 -4.5q-53 0 -100 20.5t-88.5 53t-78 72.5t-68.5 79t-71 88t-80.5 102t-84 107.5t-80.5 102.5z" />
    <glyph glyph-name="L" unicode="L" horiz-adv-x="1128" 
d="M324 1251q66 0 129 3t118 3v-52l-88 -6q-20 -2 -31.5 -7t-17.5 -16t-8.5 -30t-5.5 -49q-1 -5 -2.5 -34t-2.5 -70t-2 -88.5t-1 -90.5v-739h276q72 0 120.5 6t74.5 17q22 10 38 28t27 40.5t18 48t11 51.5l8 54l70 -4q-1 -14 -2.5 -37.5t-3 -53t-3.5 -61.5t-4 -62t-3 -57.5
t-3 -44.5l-20 -11q-42 8 -124.5 9.5t-217.5 1.5h-314q-30 0 -68.5 -1t-76.5 -2t-73.5 -2t-59.5 -1v52l84 6q19 1 31.5 6t20 16.5t11 31t4.5 48.5q2 43 3.5 132t1.5 228v300q0 43 -1 91t-2.5 89t-3 70t-2.5 35q-2 30 -7 49.5t-13 30.5t-19 16t-26 6l-86 4v52l97 -3
q40 -2 81.5 -2.5t67.5 -0.5z" />
    <glyph glyph-name="M" unicode="M" horiz-adv-x="1835" 
d="M934 206q41 92 89 203.5t97.5 229t98.5 235.5t92 223q17 42 32.5 81t30.5 75q28 -1 52.5 -1h47.5q104 0 164.5 2.5t98.5 2.5v-52l-58 -4q-22 -2 -41 -5.5t-33 -13t-22 -29t-8 -52.5q0 -18 0.5 -45t2 -59t3 -67t3.5 -70l20 -396l16 -306q2 -35 10.5 -55t22.5 -31.5
t33.5 -15.5t42.5 -6l59 -4v-52q-61 1 -99.5 2t-62.5 1.5t-37 1t-23 1t-20.5 0.5h-28.5q-29 0 -62 -0.5t-65 -1.5t-60.5 -2t-47.5 -2v52l78 6q49 4 64.5 19.5t15.5 34.5q0 20 -1.5 79t-5.5 144q-3 61 -6.5 145.5t-7.5 180.5t-9 199t-11 201q-28 -64 -64.5 -149t-77.5 -182.5
t-85 -202.5t-87 -209q-24 -60 -46.5 -112t-45.5 -106l-8 -17q-14 -8 -31.5 -20t-34 -23.5t-29 -21t-16.5 -12.5h-34l-191 414q-39 84 -80 172.5t-80.5 172t-74.5 156.5t-62 127q-2 -58 -4 -105t-3.5 -88t-3.5 -80t-3 -81t-1.5 -91t-0.5 -110q0 -14 -0.5 -43.5t-1.5 -67
t-2 -78.5t-2 -77.5t-1.5 -64t-0.5 -38.5q0 -22 8 -35t20.5 -20t28.5 -9.5t33 -3.5l76 -4v-52q-90 2 -139 3t-72 2t-28 1h-6q-18 0 -44.5 -1t-54.5 -2t-52 -2t-37 -1v52l58 4q37 3 66 18.5t34 49.5q2 13 4.5 42t5 67.5t5 83.5t4.5 90t4 87.5t3 75.5q3 66 3.5 111.5t2.5 86.5
q2 61 4 121.5t3.5 109.5t2.5 80.5t1 35.5q0 31 -8 49t-22 27.5t-33.5 13t-42.5 4.5l-56 2v52q19 0 47.5 -1t59.5 -2t60.5 -2t51.5 -1q7 0 24.5 0.5t37.5 0.5t39 0.5t29 0.5q49 -111 107 -239.5t120.5 -264t128 -274t129.5 -269.5z" />
    <glyph glyph-name="N" unicode="N" horiz-adv-x="1673" 
d="M342 1042v-430q0 -77 0.5 -136t1.5 -111.5t2.5 -102.5t3.5 -108q1 -33 7.5 -53t18 -31t27 -15t35.5 -5l88 -4v-52q-20 0 -50 1t-62.5 2t-64 2t-54.5 1q-15 0 -46 -1t-65 -2t-64.5 -2t-43.5 -1v52l76 6q22 1 36.5 5t23.5 14.5t13 30t6 52.5q3 37 4.5 80t2 87t0.5 87v81
v255q0 38 -0.5 80.5t-1 84t-1.5 80.5t-2 69q-1 37 -11 63.5t-26.5 43.5t-38.5 25.5t-46 10.5l-60 4v52q18 0 45 -1t56.5 -2t58 -2t49.5 -1q9 0 24 0.5t30.5 1.5t30.5 2t24 2l977 -1007v376q0 34 -0.5 91.5t-2 124.5t-3 135t-3.5 122q-1 32 -7 51.5t-17.5 30.5t-27 15
t-36.5 5l-88 4v52q26 -1 57 -2l62 -2t60 -1.5t51 -0.5h21t31 0.5t36 1t38 1.5l95 3v-52l-72 -4q-44 -2 -63 -23t-21 -79q-2 -55 -3 -116t-2 -121t-1 -115.5v-99.5v-495q0 -40 1 -74t3 -72q-9 -2 -20.5 -4.5t-24 -5t-23.5 -5.5t-18 -6z" />
    <glyph glyph-name="O" unicode="O" horiz-adv-x="1606" 
d="M102 589q0 100 29.5 189.5t81.5 166t124 137.5t157 104t180 66t194 23q92 0 175 -22.5t153.5 -63t127 -97.5t96.5 -126.5t61.5 -149t21.5 -164.5q0 -100 -28.5 -187.5t-79.5 -161.5t-121.5 -132.5t-154.5 -99.5t-178 -62.5t-193 -21.5q-144 0 -262.5 47t-204 128.5
t-132.5 191t-47 235.5zM295 643q0 -110 27.5 -194.5t71.5 -147t99.5 -105t112.5 -68t109.5 -36.5t89.5 -11q38 0 91 7t110 26.5t112.5 54.5t99.5 92t71.5 138.5t27.5 193.5q0 96 -21.5 176t-59.5 144.5t-90 113.5t-111.5 81.5t-124.5 49t-130 16.5q-89 0 -176 -27.5
t-155.5 -90t-111 -164t-42.5 -249.5z" />
    <glyph glyph-name="P" unicode="P" horiz-adv-x="1128" 
d="M535 1190h-22t-30.5 -0.5t-33.5 -1.5t-31 -2q-1 -29 -2 -75t-2 -98t-1.5 -104.5t-0.5 -94.5v-300q0 -150 1 -236t3 -124q2 -30 7.5 -49.5t15.5 -31.5t25.5 -17t37.5 -6l106 -4v-52l-120 3q-24 0 -49 0.5t-48.5 1t-43 1t-32.5 0.5q-17 0 -58 -1t-85 -2l-111 -3v52l82 6
q40 2 64 22.5t26 79.5q2 43 3.5 132t1.5 228v300q0 43 -1 91t-2.5 89t-3 70t-2.5 35q-4 32 -9.5 51.5t-15 30.5t-24.5 15t-37 5l-65 4v52l86 -4q34 -2 67.5 -3t49.5 -1q43 0 80 1t73 2.5t75.5 3t88.5 1.5q123 0 210 -21.5t142.5 -62t81 -99.5t25.5 -133q0 -119 -46 -201.5
t-122.5 -135t-175.5 -76t-205 -23.5q-3 8 -9 22t-10 18l5 15q78 7 135.5 25.5t98 45t66 59.5t40 68.5t19.5 72t5 70.5q0 136 -81.5 212.5t-241.5 76.5z" />
    <glyph glyph-name="Q" unicode="Q" horiz-adv-x="1606" 
d="M102 589q0 100 29.5 189.5t81.5 166t124 137.5t157 104t180 66t194 23q92 0 175 -22.5t153.5 -63t127 -97.5t96.5 -126.5t61.5 -149t21.5 -164.5q0 -118 -39.5 -219t-108.5 -182t-162.5 -139t-201.5 -90q69 -51 140 -106t137 -112q30 -26 70.5 -52t83.5 -48t84 -35.5
t71 -13.5q34 0 66 9.5t49 17.5l22 -48q-54 -30 -123 -52.5t-147 -22.5q-69 0 -135.5 26t-129.5 67t-123 93t-117 104q-14 12 -39 34.5t-50 45.5t-44 40.5t-20 19.5q-5 -1 -15 -1q-6 -1 -12 -1h-11q-144 0 -262.5 47t-204 128.5t-132.5 191t-47 235.5zM295 643
q0 -110 27.5 -194.5t71.5 -147t99.5 -105t112.5 -68t109.5 -36.5t89.5 -11q38 0 91 7t110 26.5t112.5 54.5t99.5 92t71.5 138.5t27.5 193.5q0 96 -21.5 176t-59.5 144.5t-90 113.5t-111.5 81.5t-124.5 49t-130 16.5q-89 0 -176 -27.5t-155.5 -90t-111 -164t-42.5 -249.5z
" />
    <glyph glyph-name="R" unicode="R" horiz-adv-x="1335" 
d="M412 603q16 -1 37 -2t42 -1.5t39.5 -0.5h30.5q154 2 227.5 83.5t73.5 239.5q0 71 -24.5 121.5t-68.5 82.5t-104.5 47t-132.5 15h-33t-37 -1q-11 -1 -22 -1h-22q-1 -29 -2 -75t-2 -98t-1.5 -104.5t-0.5 -94.5v-211zM416 154q2 -32 7.5 -52t16 -31t26 -15.5t38.5 -5.5
l102 -4v-52q-22 0 -61 1t-81.5 2t-83.5 2t-67 1q-15 0 -47 -1t-69 -2l-74 -2t-62 -1v52l91 8q37 2 55 21.5t22 78.5q2 43 4.5 132t2.5 228v300q0 43 -1 91t-2.5 89t-3 70t-2.5 35q-4 32 -9.5 51.5t-14.5 30.5t-23.5 15t-36.5 5l-65 4v52q18 0 45 -1t55 -2t54 -2t42 -1
q50 0 93 1t85 2.5t86 3t97 1.5q108 0 188 -23t132.5 -63t78 -94.5t25.5 -117.5q0 -86 -24 -151t-64 -113t-93.5 -81t-111.5 -54q38 -36 74 -79.5t78 -97.5q43 -56 90 -115t97 -107.5t101.5 -79.5t104.5 -31h22l2 -46q-43 -11 -89 -17t-91 -6q-52 0 -97 19t-88 55t-86 88
t-91 119q-11 17 -21.5 31t-21.5 28q-48 69 -91 123.5t-77 84.5l-170 -6v-139.5t0.5 -106t1.5 -76t2 -49.5z" />
    <glyph glyph-name="S" unicode="S" horiz-adv-x="983" 
d="M125 907q0 67 22 120.5t58 95t81.5 71t93.5 49t93.5 28.5t81.5 9q69 0 131.5 -8.5t122.5 -27.5q2 -27 4.5 -59t4.5 -64.5t3.5 -63t1.5 -52.5l-63 -10q-18 54 -42.5 90.5t-57 59t-73 32t-89.5 9.5q-37 0 -77.5 -11t-74.5 -36t-56 -64t-22 -94q0 -53 25 -92.5t66 -71
t93 -57t107 -49.5q63 -28 123 -58.5t107 -70t75.5 -91t28.5 -120.5q0 -76 -22.5 -134.5t-60 -102t-85.5 -73t-100 -47.5t-103 -25.5t-94 -7.5q-51 0 -100 7.5t-92 20t-78 28.5t-58 33q-2 22 -5 61t-6 80.5t-5 78t-2 53.5l61 13q20 -70 48 -122.5t68.5 -87t96.5 -52
t133 -17.5q126 0 190 60.5t64 162.5q0 54 -25 94.5t-66 73t-94 58t-109 49.5q-57 24 -115 54.5t-104.5 70.5t-75.5 91t-29 116z" />
    <glyph glyph-name="T" unicode="T" horiz-adv-x="1280" 
d="M418 1176q-85 0 -136 -7.5t-77 -18.5q-45 -21 -68.5 -62.5t-30.5 -86.5l-8 -55l-67 3q2 14 4.5 35t5.5 44q4 27 8 56.5t7.5 59t7 57t6.5 50.5l24 18q19 -4 43 -7t58 -5.5t81.5 -4t114.5 -1.5h481h120.5t92.5 1t68.5 3.5t48.5 6.5l25 -11q2 -26 3.5 -68.5t2.5 -87.5
t1.5 -85t0.5 -61l-68 -3l-10 60q-3 17 -8.5 37.5t-14.5 40.5t-23 37.5t-34 28.5q-26 11 -84.5 18.5t-146.5 7.5h-131v-716v-106v-76t0.5 -61.5t1.5 -62.5q1 -33 7.5 -53t18.5 -31t29 -15t39 -5l104 -4v-52l-124 3q-25 0 -51 0.5t-49.5 1t-43.5 1t-33 0.5q-16 0 -53 -1
t-79.5 -2t-83 -2t-64.5 -1v52l117 4q19 1 33 5.5t23.5 16t15.5 31t9 51.5q2 21 3.5 52.5t2 75t1 101t0.5 131.5v662h-121z" />
    <glyph glyph-name="U" unicode="U" horiz-adv-x="1501" 
d="M1374 1199q-23 -1 -37.5 -5.5t-24 -18.5t-14 -41.5t-6.5 -73.5q-3 -78 -3.5 -157.5t-0.5 -151.5v-272q0 -120 -40.5 -213t-114 -156.5t-176 -96t-226.5 -32.5q-131 0 -228 31.5t-161.5 92t-96.5 148.5t-32 201v360q0 43 -0.5 91t-1.5 90.5t-2.5 74t-3.5 41.5q-3 26 -8 43
t-14 27t-23 14.5t-35 5.5l-70 4v52q22 0 57.5 -1t73 -2t70 -2t47.5 -1q74 0 131 2t115 4v-52l-68 -4q-42 -2 -61 -22.5t-23 -79.5q-1 -5 -2.5 -30.5t-2.5 -64t-2 -88t-1 -102.5v-342q0 -186 96 -282t303 -96q72 0 140.5 19.5t122.5 64.5t87 118.5t33 182.5v219
q0 65 -0.5 120.5t-1.5 104t-2.5 92t-3.5 84.5q-1 32 -7 52t-17 31t-27 15t-38 5l-91 3v52q22 0 53.5 -1t65.5 -2t66.5 -2t56.5 -1q16 0 48 1t66.5 2t65.5 2t45 1v-52z" />
    <glyph glyph-name="V" unicode="V" horiz-adv-x="1485" 
d="M1200 1141q0 38 -22.5 49t-67.5 13l-57 2v52q21 0 54 -1t68.5 -2t69.5 -2t58 -1q14 0 43.5 0.5t59.5 2.5l75 3v-52l-47 -4q-34 -2 -51.5 -17.5t-32.5 -44.5q-31 -61 -58.5 -117t-53 -110t-50 -107.5t-49.5 -109.5q-76 -173 -149.5 -338t-145.5 -338q-15 -4 -34.5 -9.5
t-39.5 -11.5t-37.5 -12.5t-27.5 -12.5l-33 10q-75 173 -140 324.5t-131 291.5q-17 35 -38 81t-44 95.5t-45 99t-42 93t-35 76.5t-23 49q-31 59 -60.5 82.5t-60.5 25.5l-49 4v52l89 -3q36 -2 73.5 -2.5t60.5 -0.5q11 0 34.5 0.5t53.5 1t63.5 1.5t62.5 1.5t51.5 1t31.5 0.5
v-52l-78 -4q-45 -2 -63 -12.5t-18 -35.5q0 -16 5 -35.5t13 -39.5q43 -102 94 -219t104.5 -238t107.5 -240.5t104 -226.5q30 66 64 141t70 155t72 162.5t70 162.5q32 78 59.5 146t49.5 122q8 21 15 49.5t7 48.5z" />
    <glyph glyph-name="W" unicode="W" horiz-adv-x="2157" 
d="M2015 1139q-18 -47 -38.5 -103t-42 -114.5t-43 -117.5t-40.5 -113q-13 -37 -33.5 -94.5t-44.5 -124t-48.5 -136.5t-46.5 -132t-38.5 -110.5t-23.5 -71.5l-117 -39l-37 4q-13 36 -30 82t-37 98t-41 106.5t-42 107.5t-40.5 102t-36.5 90q-12 28 -30 73t-39 96t-43.5 103
t-43.5 94q-34 -73 -68 -152.5t-65 -154.5q-46 -111 -92 -223.5t-94 -239.5q-16 -40 -32.5 -81.5t-27.5 -68.5l-129 -44l-28 8q-20 65 -45.5 147t-53 168.5t-54.5 170.5t-50 153q-42 125 -82 243.5t-78 227.5q-22 59 -50.5 82.5t-63.5 25.5l-54 4v52l86 -3q35 -2 71.5 -2.5
t59.5 -0.5q16 0 55.5 1t85.5 2t89 2t67 1v-52l-80 -4q-45 -2 -63 -12.5t-18 -35.5q0 -15 6.5 -46t17.5 -71.5t25.5 -88t29.5 -95t29.5 -92.5t26.5 -80q9 -26 20.5 -60.5l24.5 -73.5t27 -80.5t28 -80.5l66 -192q88 211 176.5 427t185.5 449q34 14 70 31.5t65 31.5l35 -4
q21 -57 49 -129.5t56.5 -145t53.5 -136t40 -101.5q8 -21 20 -50.5t26 -63t29 -69.5t29 -70q17 -40 34 -81.5t36 -85.5q23 60 44 118.5t41 115.5q17 48 35 99.5t35.5 100.5t33 94t27.5 80q35 108 62 190.5t27 146.5q0 19 -6 29.5t-17.5 16.5t-28.5 8.5t-39 4.5q-6 0 -16 1
l-20 2l-25 2v52l100 -3q42 -2 83 -2.5t65 -0.5q14 0 42 0.5t57 2.5l73 3v-52l-47 -2q-37 -2 -53 -17t-29 -47z" />
    <glyph glyph-name="X" unicode="X" horiz-adv-x="1333" 
d="M502 400q-18 -24 -41.5 -55.5t-47 -63.5t-44 -60.5t-33.5 -47.5q-11 -16 -24 -40.5t-13 -44.5t21.5 -27.5t66.5 -10.5l57 -4v-52l-100 3q-41 0 -82.5 1.5t-64.5 1.5q-15 0 -42.5 -1t-57.5 -2t-57 -2t-40 -1v52l39 4q38 5 64 21.5t49 42.5q14 16 32.5 39t39 49t42 52.5
t41.5 50.5q16 21 37 46.5t43.5 53t45.5 56t44 54.5l103 126q-31 45 -61.5 87.5t-61.5 84.5q-26 36 -54 74t-55 75.5t-53 72t-47 62.5q-37 48 -64 72.5t-61 29.5l-51 6v52q21 0 50 -1t59.5 -2t60.5 -2t53 -1h24.5t38 0.5t46.5 1t50 1.5l128 3v-52l-62 -4q-43 -2 -59.5 -11
t-16.5 -31q0 -19 11.5 -42.5t23.5 -40.5q22 -31 53 -75.5t62 -89.5t58 -83.5t42 -57.5l50 64l81 107q18 24 30.5 41t23 32t20.5 29.5t23 34.5q6 8 12 18.5t11.5 22.5t9 24t3.5 22q0 19 -18.5 26t-63.5 10l-61 4v52q21 0 53 -1t67.5 -2t69 -2t56.5 -1q15 0 44.5 0.5t58.5 2.5
l73 3v-52l-39 -4q-22 -2 -48.5 -18.5t-51.5 -45.5q-23 -27 -48.5 -58.5t-51.5 -64.5l-52 -66t-49 -63l-145 -188q31 -48 61 -91.5t57 -83.5q82 -118 148.5 -209t120.5 -157q15 -20 30.5 -38t32 -32.5t33.5 -24t37 -11.5l43 -4v-52l-88 3q-36 1 -74 2t-61 1q-10 0 -33 -0.5
t-52 -1t-61 -1.5t-60.5 -1.5t-50 -1t-30.5 -0.5v52l61 4q45 3 58.5 14t13.5 34q0 8 -3.5 19.5t-9.5 23.5t-12.5 23.5t-12.5 19.5q-16 24 -36 53.5t-41.5 61t-44 64t-43.5 62.5l-100 145z" />
    <glyph glyph-name="Y" unicode="Y" horiz-adv-x="1284" 
d="M647 0q-9 0 -25 -0.5t-36 -1t-42.5 -1t-44.5 -0.5l-112 -3v52l94 6q22 1 37.5 5t25 14.5t14.5 30t7 52.5q1 25 2 51.5t2 63.5t1.5 89t0.5 127q-22 40 -40 71t-33.5 56.5t-30 48t-31 47t-36 53t-44.5 65.5q-7 9 -22 30.5t-34 49.5t-39.5 58.5t-38.5 57t-31 46l-17 25.5
q-21 29 -36.5 48t-29.5 30.5t-29 17.5t-36 9l-43 7v52l89 -3q36 -2 73.5 -2.5t60.5 -0.5q15 0 47.5 1t72 2t81 2t74.5 1v-52l-60 -4q-43 -2 -59.5 -12.5t-16.5 -35.5q0 -17 8 -38t17 -35q19 -31 43.5 -68t51.5 -77.5t54.5 -82.5t53.5 -84q13 -21 31 -48.5t35 -53.5
q10 -15 19.5 -30t20.5 -30q18 26 35.5 53t34.5 53q15 22 31 46.5t31.5 49.5t30 49.5t26.5 45.5q11 18 24.5 40.5t27 44.5t25.5 42t19 32q9 18 18 42.5t9 39.5q0 34 -22 44t-67 13l-57 4v52l100 -3q20 -1 41 -1.5t40.5 -1t36 -0.5h28.5q15 0 44.5 0.5t58.5 2.5l73 3v-52
l-43 -4q-23 -2 -41 -14t-35 -32q-27 -35 -65 -89.5t-80 -118t-84.5 -131t-80 -128t-66 -109t-41.5 -74.5v-351q0 -59 22.5 -79t68.5 -22l89 -7v-52q-22 0 -59 1t-78.5 2t-80 2t-63.5 1z" />
    <glyph glyph-name="Z" unicode="Z" horiz-adv-x="1212" 
d="M477 1170q-41 -1 -71.5 -5t-53 -9t-38.5 -11.5t-29 -12.5q-20 -10 -35 -27t-26 -38t-17.5 -44t-9.5 -45l-7 -50h-71q1 20 3.5 63t4.5 92.5t4 95.5t4 72l25 11q21 -4 56 -6.5t79 -3.5t96 -1h107h549l24 -22q-120 -176 -230 -340t-207 -311t-178.5 -274t-144.5 -229h467
q125 0 195.5 45t87.5 152l8 51h70q0 -19 -2 -61.5t-4 -90.5t-5 -93.5t-4 -69.5l-24 -19q-42 7 -123 9t-215 2h-395q-20 0 -57 -0.5t-78.5 -1t-81 -2.5t-64.5 -5l-25 34q202 290 391.5 575t374.5 576z" />
    <glyph glyph-name="bracketleft" unicode="[" horiz-adv-x="614" 
d="M590 -266v-55h-402l6 144q2 69 3.5 160.5t1.5 203.5v583q0 177 -3.5 287.5t-7.5 156.5q0 14 -1 24t-1 13h404v-55h-199q-8 -57 -13 -170.5t-5 -288.5v-556q0 -135 0.5 -222.5t2.5 -138.5l3 -92z" />
    <glyph glyph-name="backslash" unicode="\" horiz-adv-x="756" 
d="M668 -518l-666 1975l92 31l664 -1977z" />
    <glyph glyph-name="bracketright" unicode="]" horiz-adv-x="614" 
d="M25 1196v55h401q-1 -29 -2 -62t-3 -69q-2 -63 -3.5 -151t-1.5 -199v-583q0 -99 1.5 -175.5t3.5 -137.5t4 -108.5t3 -88.5h-403v55h198q4 30 7.5 78t6 110.5t4 138t1.5 160.5v556q0 137 -0.5 220t-2.5 129l-3 77z" />
    <glyph glyph-name="asciicircum" unicode="^" horiz-adv-x="1024" 
d="M584 1372l401 -819h-104l-359 725l-372 -725h-109l424 819h119z" />
    <glyph glyph-name="underscore" unicode="_" horiz-adv-x="1024" 
d="M1032 -210v-90h-1040v90h1040z" />
    <glyph glyph-name="grave" unicode="`" horiz-adv-x="696" 
d="M324 1253q29 -54 75.5 -125.5t106.5 -143.5v-18l-37 -17q-33 22 -75.5 52.5t-85 64t-80.5 66.5t-62 60l18 33q13 2 32.5 5.5t40 7t38.5 7.5t29 8z" />
    <glyph glyph-name="a" unicode="a" horiz-adv-x="932" 
d="M739 -19q-38 0 -65 10t-44.5 26.5t-27.5 37.5t-14 43q-26 -23 -55.5 -45.5t-64.5 -40.5t-75.5 -29.5t-87.5 -11.5q-107 0 -161 57.5t-54 150.5q0 55 19.5 94t53 67t78.5 46.5t95 32.5q31 9 65.5 17t66.5 15.5t59 14.5t44 13v70q0 40 -7.5 72.5t-28 56t-56 36t-90.5 12.5
q-45 0 -97.5 -14t-98.5 -29l-17 6l-14 52q35 14 77 29t83.5 27.5t80.5 20.5t68 8q38 0 85 -8t87.5 -35.5t68 -80t27.5 -142.5v-331q0 -42 8 -72.5t21 -50t29 -29t32 -9.5q35 0 82 28l27 -50q-11 -7 -30 -18t-44.5 -21.5t-57 -18t-67.5 -7.5zM578 173q-2 24 -3.5 57.5
t-2 68.5t-1 66t-0.5 49q-34 -14 -78 -23.5t-83 -21.5q-39 -13 -65.5 -28.5t-43 -35.5t-24 -45t-7.5 -58q0 -66 29 -97.5t74 -31.5q25 0 51.5 8t52.5 21.5t52 32t49 38.5z" />
    <glyph glyph-name="b" unicode="b" horiz-adv-x="1102" 
d="M350 728q28 14 65 30.5t78.5 31t83.5 24.5t80 10q63 0 127 -21.5t115.5 -68t84 -119t32.5 -174.5t-41.5 -188t-113.5 -149t-168.5 -98t-207.5 -35q-66 0 -128 10.5t-107 24.5q-9 -11 -20 -22l-19 -19l-49 11q4 30 7.5 72.5t5.5 105.5t3.5 151t1.5 209v300q0 118 -1 196.5
t-3 126.5q-1 29 -2 52t-2 40q-25 -8 -51 -14t-47 -14l-17 48q15 4 48.5 16.5t75 30.5t83.5 39t74 41l27 -15q-2 -26 -3.5 -57t-3.5 -67q-3 -63 -5.5 -151.5t-2.5 -209.5v-148zM350 100q28 -17 81.5 -32.5t125.5 -15.5q64 0 115 25t85.5 70.5t53 109t18.5 140.5
q0 79 -19.5 139.5t-55.5 102t-86.5 62.5t-112.5 21q-22 0 -50 -6.5t-56.5 -17t-54.5 -23t-44 -23.5v-552z" />
    <glyph glyph-name="c" unicode="c" horiz-adv-x="915" 
d="M498 745q-38 0 -78.5 -19.5t-74.5 -60.5t-55.5 -106t-21.5 -155q0 -68 17 -125.5t52.5 -100t89 -66.5t126.5 -24q69 0 115 18t80 41l69 48l37 -46l-79 -62q-72 -57 -151.5 -86.5t-170.5 -29.5q-69 0 -135.5 24.5t-119 74.5t-84.5 125.5t-32 177.5t40 185.5t107.5 143
t155.5 92t184 32.5q34 0 69.5 -4.5t69 -12t63 -17.5t52.5 -22v-10q-5 -9 -12.5 -26.5t-15.5 -37t-14.5 -38t-10.5 -30.5h-29q-23 21 -50.5 42t-58.5 37.5t-65 27t-69 10.5z" />
    <glyph glyph-name="d" unicode="d" horiz-adv-x="1110" 
d="M86 356q0 102 41.5 188t113.5 149t168.5 98t206.5 35q15 0 34 -1t38 -2.5t36.5 -3t29.5 -3.5q0 115 -1 192t-3 128q-1 29 -2 53t-3 41q-26 -6 -57 -13t-59 -12l-15 52q16 4 52.5 15.5t80.5 28t88 36t74 39.5l29 -15q-2 -26 -4 -57t-4 -67q-3 -63 -5.5 -151.5t-2.5 -209.5
v-510q0 -88 1.5 -149.5t6.5 -110.5q13 3 32 7t38 7.5t35.5 7t25.5 5.5l8 -52q-17 -4 -53 -15t-78 -27t-84 -34.5t-72 -37.5l-28 14v90q-29 -14 -67 -31t-79.5 -32t-84 -25t-79.5 -10q-63 0 -127 21.5t-115 68t-83.5 119t-32.5 174.5zM754 697q-29 17 -83 32.5t-126 15.5
q-65 0 -115.5 -25.5t-85.5 -71t-53.5 -109t-18.5 -139.5q0 -80 19.5 -141t54 -102t81.5 -61.5t101 -20.5q29 0 59.5 7t60 17.5t57 22.5t49.5 23v552z" />
    <glyph glyph-name="e" unicode="e" horiz-adv-x="930" 
d="M682 460q-24 0 -54 0.5t-63.5 1t-68 1.5t-67.5 2l-158 3l-2 -22q-1 -10 -1 -21v-21q0 -55 14 -111.5t46 -102.5t85.5 -75t131.5 -29q60 0 110.5 19.5t87.5 41.5l66 38l35 -51l-74 -49q-29 -20 -65.5 -40t-78.5 -36.5t-89 -27t-97 -10.5q-64 0 -128 25t-115 75.5t-83 126
t-32 177.5q0 106 40 190t108 142t156.5 88.5t186.5 30.5q58 0 109.5 -22t90.5 -62t62 -97t23 -127zM500 747q-30 0 -64.5 -15t-65.5 -43.5t-55 -69t-34 -91.5h378q-2 51 -16.5 92t-37 69t-50 43t-55.5 15z" />
    <glyph glyph-name="f" unicode="f" horiz-adv-x="647" 
d="M373 444v-60.5t0.5 -77t1.5 -80.5t2 -71q1 -36 5 -57t13.5 -32.5t25.5 -14.5t40 -3h82v-54q-29 0 -63.5 1t-70.5 2t-71.5 2t-65.5 1q-11 0 -42 -1t-64 -2l-84 -3v52l56 3q21 1 33 5.5t18.5 16t8.5 31.5t3 52q1 30 2 62.5t1.5 74t0.5 95.5v128v208h-131l-4 23l139 98l4 81
q5 102 46.5 185t103.5 142t136 91t144 32q21 0 46 -3t47.5 -7.5t40 -10t24.5 -9.5v-8q-6 -11 -12 -27.5t-11.5 -34t-10 -34l-7.5 -27.5h-31q-38 26 -85 45.5t-95 19.5q-35 0 -67 -18t-56 -52t-38.5 -83t-14.5 -111v-207h229v-16l-14 -73l-215 8v-282z" />
    <glyph glyph-name="g" unicode="g" horiz-adv-x="995" 
d="M285 106q0 32 31.5 56t76.5 46q-63 8 -117 33.5t-93.5 65t-62 91t-22.5 112.5q0 78 31 137t83.5 98.5t121.5 60t145 20.5q32 0 63 -2.5t54 -7.5h40.5t57.5 0.5t67.5 1t69 1t63 1.5t50.5 2l8 -10q-5 -14 -11 -36t-11 -41q-54 0 -104 5t-101 5q42 -36 71 -92t29 -122
q0 -68 -21 -119.5t-60 -90t-94.5 -64t-123.5 -40.5q-38 -8 -60 -22.5t-22 -36.5q0 -13 8.5 -24t22 -21t30 -19.5t32.5 -18.5l229 -123q35 -21 66 -41t53.5 -42t35.5 -47t13 -55q0 -50 -23 -92.5t-63 -77.5t-93.5 -62t-115 -46t-127.5 -28.5t-131 -9.5q-59 0 -122.5 11.5
t-116.5 37t-87.5 67.5t-34.5 104q0 51 37 95t93.5 82.5t123 70.5t125.5 59q-20 12 -40 26t-36.5 30.5t-27 34.5t-10.5 37zM207 -308q0 -36 16 -66t46 -51.5t74 -34t101 -12.5t111.5 14t97.5 39.5t69 61.5t26 80q0 20 -8 37t-20.5 31t-28.5 25t-32 20q-37 23 -87 50t-95 50
q-19 -7 -46 -17.5t-57 -25.5t-60 -34.5t-53.5 -44.5t-38.5 -55.5t-15 -66.5zM489 290q28 0 56.5 10t51.5 32t37.5 58t14.5 88q0 57 -13.5 108t-39 89t-62.5 60t-83 22q-85 0 -126.5 -51.5t-41.5 -139.5q0 -71 17.5 -123t46 -86t65.5 -50.5t77 -16.5z" />
    <glyph glyph-name="h" unicode="h" horiz-adv-x="1133" 
d="M82 1201l-16 48q14 4 47.5 17t75 31t83.5 38.5t74 40.5l29 -15q-5 -68 -8 -136t-5 -143t-3.5 -161.5t-2.5 -192.5q26 14 53 26t55 23q48 18 103 33.5t109 15.5q39 0 86 -11.5t87.5 -42t67.5 -85t27 -140.5v-156v-65t0.5 -70.5t1.5 -63t2 -42.5q1 -30 4 -48.5t11 -29
t24 -15t43 -7.5l37 -4v-52q-16 0 -39.5 1t-51 2t-57.5 2t-59 1q-34 0 -61 -1t-51.5 -2t-47.5 -2t-49 -1v52l50 3q22 1 35 4.5t20 14t10 31t4 55.5q0 14 0.5 40t1.5 55.5t1.5 57t0.5 44.5v196q0 45 -15 77t-42.5 52t-67.5 29t-90 9q-30 0 -61 -6.5t-59 -15t-49.5 -17
t-31.5 -12.5v-312v-44.5t0.5 -57t1.5 -55.5t2 -40q1 -33 4.5 -52.5t12 -30.5t22.5 -15t37 -6l43 -4v-52q-55 0 -107.5 3t-115.5 3q-10 0 -34 -1t-51.5 -2t-53 -2t-37.5 -1v52l37 4q18 2 30 7.5t19 17t10.5 31t5.5 48.5q1 14 2 46.5t1.5 70t0.5 73v56.5v414v135.5t-1 100.5
t-2.5 86t-4.5 94z" />
    <glyph glyph-name="i" unicode="i" horiz-adv-x="559" 
d="M373 351v-44.5t0.5 -57t1.5 -55.5t2 -40q2 -32 5.5 -51.5t12 -30.5t23 -15.5t38.5 -6.5l40 -4v-52q-45 0 -104.5 3t-119.5 3q-10 0 -38 -1t-61 -2t-62.5 -2t-42.5 -1v52l69 6q32 2 46 23.5t16 78.5q0 14 0.5 46.5t1.5 70t1.5 73t0.5 56.5q0 75 -1.5 127.5t-5.5 87.5
t-10.5 55.5t-18 32.5t-27.5 18t-38 12l7 41q26 3 60 10t67.5 16t61.5 17.5t42 14.5l39 -18q-2 -60 -3 -112.5t-2 -106t-1 -112.5v-132zM150 1170v10q7 5 29.5 15t48.5 20.5t50.5 18.5t36.5 10l70 -112l-8 -13q-6 -2 -26 -11.5t-42.5 -21.5t-43.5 -24t-29 -19z" />
    <glyph glyph-name="j" unicode="j" horiz-adv-x="543" 
d="M360 -110q0 -79 -14 -151t-51.5 -129.5t-102.5 -96t-167 -50.5l-17 32q50 27 84 61.5t55 79.5t30 103t9 132v632q0 75 -3 117t-13.5 64t-30.5 31t-53 18l6 41q26 3 60.5 10t68 16t61.5 17.5t42 14.5l38 -18l-3 -146q-2 -69 -2.5 -155t-0.5 -186q0 -55 0.5 -96t0.5 -74
t1 -61.5t1 -58.5t0.5 -65.5t0.5 -81.5zM139 1170v10q7 5 29.5 15t49 20.5t51 18.5t36.5 10l68 -112l-6 -13q-6 -2 -26 -12t-42.5 -22t-43.5 -23.5t-30 -18.5z" />
    <glyph glyph-name="k" unicode="k" horiz-adv-x="993" 
d="M80 46l37 4q18 2 30 6.5t19.5 15.5t11.5 30.5t6 51.5q1 14 2 46.5t1.5 70t0.5 73v56.5v414q0 118 -1 196.5t-3 126.5q-1 29 -2 52t-2 40q-25 -8 -50.5 -15t-47.5 -13l-16 48q14 4 47.5 17t75 31t83.5 38.5t74 40.5l27 -15q-2 -26 -4 -57t-4 -67q-3 -63 -6 -151.5
t-3 -209.5v-426q66 57 132 113t133 113q24 20 41.5 39t17.5 29q0 5 -3.5 8t-14.5 5l-64 5v50q40 0 83.5 -2.5t74.5 -2.5q17 0 42.5 1t52 1.5t50.5 1.5t39 1v-52l-45 -6q-14 -2 -39.5 -9.5t-46.5 -22.5q-78 -55 -142.5 -109t-109.5 -93q16 -20 33.5 -45t34.5 -48
q46 -65 93.5 -130.5t91 -119t80.5 -88.5t62 -39l23 -3q3 -1 14 -1v-52q-27 0 -50.5 1l-47 2t-48.5 2t-55 1q-13 0 -37.5 -0.5t-51 -1.5t-51 -2t-38.5 -2v52l35 4q10 2 20.5 5t10.5 13q0 16 -11.5 36.5t-23.5 40.5q-31 42 -81 109.5t-126 167.5q-20 -17 -40.5 -34t-37.5 -34
q0 -22 0.5 -52t1.5 -59t1.5 -53.5t0.5 -35.5q1 -33 5 -53t12.5 -31t23 -15t37.5 -6l41 -3v-52q-55 0 -107.5 3t-115.5 3q-10 0 -34 -1t-51.5 -2t-53 -2t-37.5 -1v52z" />
    <glyph glyph-name="l" unicode="l" horiz-adv-x="543" 
d="M256 0q-10 0 -38.5 -1t-61 -2t-62 -2t-41.5 -1v52l59 4q20 1 33 5.5t21 15.5t11.5 31t4.5 52q1 30 2 62.5t1.5 74t0.5 95.5v128v300q0 118 -1 196.5t-3 126.5q-1 29 -2 52t-2 40q-25 -8 -50.5 -14t-45.5 -14l-16 48q14 4 47 16.5t74 30.5t83 39t74 41l29 -15
q-2 -26 -4 -57t-4 -67q-3 -63 -6 -151.5t-3 -209.5v-416q0 -91 0.5 -170t2.5 -136q1 -36 5 -56.5t13.5 -31t25 -14t39.5 -4.5l58 -2v-52q-60 0 -120.5 3t-123.5 3z" />
    <glyph glyph-name="m" unicode="m" horiz-adv-x="1694" 
d="M856 0q-60 0 -113.5 -3t-93.5 -3v52l40 4q24 2 38.5 5.5t22.5 13t11 29t5 52.5q1 14 2 41t1.5 56.5t0.5 58v45.5v196q0 45 -14.5 77t-41 52t-64.5 29t-85 9q-27 0 -57 -6.5t-57 -15t-48 -17t-30 -12.5v-312v-44.5t0.5 -57t1.5 -55.5t2 -40q2 -36 5 -56t11 -30.5t22.5 -14
t38.5 -5.5q15 -2 26 -2h18v-52q-54 0 -109 3t-115 3q-10 0 -34 -1t-51.5 -2t-53 -2t-37.5 -1v52l39 4q21 2 32.5 6.5t18 15.5t9 30.5t4.5 51.5q1 14 2 46.5t1.5 70t0.5 73v56.5v103q0 73 -4.5 115t-14.5 64t-25.5 30t-36.5 13l-38 8l6 41q25 3 62 10t73.5 16t67 17.5
t43.5 14.5l33 -14v-90l37 17q69 30 136.5 55.5t133.5 25.5q28 0 58.5 -4.5t60.5 -17t56.5 -34.5t45.5 -57q3 2 5 1.5t5 1.5q39 18 83 37.5t88 35.5t86.5 26.5t78.5 10.5q39 0 84.5 -11.5t84.5 -42t65 -85t26 -140.5v-156v-65t0.5 -70.5t1.5 -63t2 -42.5q2 -31 4.5 -50
t10.5 -30t24 -15.5t45 -6.5l35 -2v-52q-53 0 -101 3t-106 3q-66 0 -120.5 -3t-88.5 -3v52l43 4q19 2 33.5 6t24 15t14.5 30.5t6 52.5q0 14 0.5 40t1.5 55.5t1.5 57t0.5 44.5v196q0 45 -14.5 77t-41.5 52t-65 29t-86 9q-25 0 -55 -7t-59 -16t-53 -19t-37 -16q6 -23 10 -51
t4 -58v-156q0 -29 0.5 -65t1.5 -70.5t1.5 -63t0.5 -42.5q1 -31 3 -50t10 -30t24 -15.5t45 -6.5l35 -2v-52q-53 0 -99.5 3t-105.5 3z" />
    <glyph glyph-name="n" unicode="n" horiz-adv-x="1149" 
d="M498 46v-52q-57 0 -109 3t-115 3q-10 0 -34 -1t-51.5 -2t-53 -2t-37.5 -1v52l39 4q17 2 29 6.5t19.5 16t11 30.5t4.5 51q0 14 0.5 46.5t1.5 70t1.5 73t0.5 56.5v103q0 73 -4 114.5t-14 63t-25.5 30t-37.5 15.5q-3 1 -9.5 2.5t-12.5 2.5l-16 2l6 41q25 3 62 10t73.5 16
t67.5 17.5t45 14.5l33 -14v-90l37 17q69 32 141 56.5t141 24.5q39 0 86 -11.5t87.5 -42t68 -85t27.5 -140.5v-156q0 -29 0.5 -65t1.5 -70.5t1.5 -63t0.5 -42.5q1 -31 3 -50t10 -30t24.5 -15.5t46.5 -6.5l34 -2v-52q-53 0 -100.5 3t-105.5 3q-69 0 -120 -3t-89 -3v52
q34 2 56 5.5t35 14t19 31t8 57.5q1 14 2 40t1.5 55.5t1 57t0.5 44.5v196q0 45 -15 77t-43 52t-68 29t-90 9q-29 0 -60 -6.5t-59 -15t-49.5 -17t-31.5 -12.5v-312v-44.5t0.5 -57t1.5 -55.5t2 -40q2 -33 6.5 -52.5t14 -30.5t24 -15t37.5 -6z" />
    <glyph glyph-name="o" unicode="o" horiz-adv-x="1137" 
d="M604 826q98 0 180 -29t141.5 -83t92.5 -130.5t33 -171.5q0 -89 -36.5 -169.5t-103.5 -141t-162 -96.5t-212 -36q-109 0 -193 34t-141.5 91t-87 131.5t-29.5 156.5q0 105 41 187.5t111.5 139.5t164.5 87t201 30zM281 439q0 -91 25 -163.5t69.5 -123t104 -77.5t128.5 -27
q53 0 98.5 20.5t78.5 61t52 100t19 136.5q0 88 -22.5 159t-65.5 121t-104 76.5t-138 26.5q-33 0 -75.5 -14.5t-80 -50t-63.5 -95.5t-26 -150z" />
    <glyph glyph-name="p" unicode="p" horiz-adv-x="1110" 
d="M53 -493l64 6q21 2 34 6t20 15t9.5 30t3.5 51q1 31 2 65t1.5 77.5t0.5 99v130.5v516q0 73 -5 114t-15.5 63t-27 30t-38.5 14l-32 9l6 41q25 3 60.5 10t70.5 16t65 17.5t43 14.5l33 -14l8 -92q28 14 66 31t79.5 32t84 25t80.5 10q63 0 127 -21.5t115 -68t83.5 -119
t32.5 -174.5t-41.5 -188t-113.5 -149t-168.5 -98t-206.5 -35q-48 0 -81.5 4.5t-56.5 11.5v-372q0 -58 19 -80t67 -24l88 -4v-50l-106 3q-45 1 -90.5 2t-75.5 1q-10 0 -38.5 -1t-61.5 -2t-63 -2t-42 -1v50zM358 100q28 -17 81.5 -32.5t125.5 -15.5q64 0 115 25t86 70.5
t53.5 109t18.5 140.5q0 79 -20 139.5t-56 102t-87 62.5t-112 21q-21 0 -49 -6.5t-56.5 -17t-55 -23t-44.5 -23.5v-552z" />
    <glyph glyph-name="q" unicode="q" horiz-adv-x="1102" 
d="M86 354q0 102 41.5 188t113.5 149t168.5 98t206.5 35q51 0 90 -7t62 -12q38 2 80 9.5t78 15.5l12 -20l-8 -146q-2 -31 -3 -64.5t-2.5 -66.5t-2 -64.5t-0.5 -58.5v-393q0 -82 1 -149.5t2.5 -125t3 -108t3.5 -98.5l98 14l8 -48l-102 -17l-170 -28l-29 14q10 126 13.5 281.5
t3.5 317.5q-29 -14 -66.5 -31.5t-79 -32.5t-84 -25t-80.5 -10q-63 0 -127 21.5t-115 68t-83.5 119t-32.5 174.5zM752 695q-28 17 -81.5 33t-125.5 16q-65 0 -115.5 -25.5t-85.5 -71t-53.5 -109t-18.5 -139.5q0 -81 19.5 -142t55.5 -102t87 -61.5t113 -20.5q22 0 50 6.5
t56.5 17t54.5 23t44 23.5v552z" />
    <glyph glyph-name="r" unicode="r" horiz-adv-x="784" 
d="M369 683q29 25 60.5 50.5t62.5 46t60 33.5t54 13q45 0 84.5 -12t67.5 -28v-14q-7 -13 -15.5 -32t-17.5 -40.5t-17.5 -44t-15.5 -41.5h-30q-25 33 -58 58.5t-72 25.5q-18 0 -39 -9.5t-42.5 -23.5t-41.5 -30.5t-36 -30.5v-253v-44.5t0.5 -57t1.5 -55.5t2 -40q1 -34 6 -54
t15 -30.5t25 -14t37 -4.5l79 -5v-52l-103 3q-43 1 -88 2t-76 1q-10 0 -34 -1t-51.5 -2t-52.5 -2t-36 -1v52l47 8q13 1 23.5 6t17 16t10.5 30t5 48q0 14 0.5 46.5t1.5 70t1.5 73t0.5 56.5v103q0 73 -2.5 115t-12.5 64.5t-29 32t-52 18.5l6 41q25 3 58 10.5t65 16.5t59 17.5
t41 13.5l33 -14z" />
    <glyph glyph-name="s" unicode="s" horiz-adv-x="786" 
d="M379 749q-62 0 -92.5 -29.5t-30.5 -70.5q0 -33 16.5 -57t44.5 -42.5t63.5 -32.5t74.5 -28q46 -17 91 -36.5t81 -47t58 -65t22 -90.5q0 -73 -31.5 -124t-80.5 -83.5t-108.5 -47t-115.5 -14.5q-170 0 -265 61q-2 23 -4 52l-4 58t-3.5 54.5t-2.5 41.5l53 10
q20 -57 46.5 -95.5t59.5 -62.5t71 -34.5t81 -10.5q72 0 115 35.5t43 98.5q0 37 -18 63.5t-47.5 46t-67.5 34.5t-78 29q-46 17 -90 36.5t-78 45.5t-55 60t-21 80q0 47 18 83t47 63t65 45.5t73 29.5t71 16t58 5q60 0 111.5 -10t85.5 -26q1 -12 2 -36.5t2 -52t1.5 -53
t0.5 -40.5l-51 -9q-35 76 -88.5 113t-122.5 37z" />
    <glyph glyph-name="t" unicode="t" horiz-adv-x="737" 
d="M66 781q24 18 58 44.5t68.5 53.5t65 51t47.5 38h39l-6 -161h332l8 -19l-20 -25q-8 -11 -16 -21t-13 -18q-28 1 -64.5 2t-76 2.5t-78.5 2.5t-72 2v-509q0 -39 17 -66t40.5 -44.5t48.5 -25t41 -7.5q15 0 36.5 5t46 13.5t50.5 19.5t50 22l24 -62q-11 -6 -45.5 -23.5
t-80.5 -36t-97 -33.5t-94 -15q-46 0 -84 19t-65.5 49.5t-42.5 69t-15 78.5v544h-94z" />
    <glyph glyph-name="u" unicode="u" horiz-adv-x="1145" 
d="M776 478q0 85 -2.5 146t-7.5 89q-26 -5 -42.5 -7.5t-39.5 -7.5l-12 55q32 7 66.5 16.5t69 21t67.5 23.5t61 24l27 -14q-3 -21 -6 -59.5t-5.5 -90t-4 -114.5t-1.5 -132v-39v-96.5t1 -75t2.5 -60t4.5 -51.5l131 27l9 -52q-17 -4 -51.5 -15t-76 -27t-82.5 -34.5t-71 -37.5
l-29 14l-4 115q-91 -49 -172.5 -82t-148.5 -33q-26 0 -57.5 4.5t-64 16.5t-62.5 32t-53.5 50.5t-37.5 73.5t-14 100v220q0 27 -1 60.5t-2.5 66.5t-3 62t-3.5 46q-26 -5 -48 -9.5t-46 -6.5l-15 54q32 7 69 17t74.5 22t73 24t62.5 24l26 -14q-2 -21 -4.5 -59.5t-5 -90
t-4.5 -114.5t-2 -132v-154q0 -45 14.5 -79t40.5 -57t62 -34.5t80 -11.5q28 0 63.5 8.5t69.5 20t62.5 23t43.5 18.5v316z" />
    <glyph glyph-name="v" unicode="v" horiz-adv-x="1030" 
d="M565 141l79 181q16 37 32.5 76t31.5 76.5t28 70.5t22 58l7.5 25t8.5 30.5t7 29.5t3 23q0 25 -17.5 34t-49.5 12l-37 3v52q26 -1 46.5 -2t40.5 -1.5t43.5 -1t55.5 -0.5q60 0 97 2.5t63 2.5v-52l-37 -3q-15 -2 -28 -8.5t-25 -19.5t-24.5 -34t-26.5 -52q-13 -29 -32.5 -74
t-44 -101t-52.5 -120.5t-58 -132.5q-20 -46 -40 -94t-42 -96q-11 -3 -27.5 -8.5t-34.5 -12t-34.5 -13.5t-27.5 -13l-48 7q-45 100 -90.5 200t-87.5 189.5t-78 164.5t-63 127q-16 30 -26.5 46.5t-19.5 25.5t-18 12t-22 5l-35 5v52q17 0 43.5 -1t54.5 -1.5t52 -1.5t36 -1
q33 0 60.5 1t53 1.5t51 1.5t53.5 1v-52l-42 -2q-28 -2 -43.5 -7.5t-15.5 -22.5q0 -9 6 -27.5t13 -37.5q11 -29 30.5 -74t44 -99.5t53 -115.5t56.5 -122q6 -14 15.5 -33t18.5 -36z" />
    <glyph glyph-name="w" unicode="w" horiz-adv-x="1638" 
d="M1634 760l-39 -5q-15 -2 -28 -8t-25 -19t-24 -33.5t-25 -51.5t-33.5 -79.5t-44.5 -106.5t-50.5 -121t-51 -123t-45.5 -112t-35 -88q-9 -3 -22.5 -8t-28.5 -11t-29.5 -12.5t-24.5 -12.5l-49 6q-39 99 -78.5 198t-75.5 186.5t-66.5 157.5t-51.5 111q-13 -30 -32.5 -78.5
t-42.5 -107t-46.5 -121.5t-45.5 -121.5t-39.5 -107.5t-27.5 -79q-26 -6 -57 -20t-51 -26l-47 6q-100 242 -172.5 417.5t-120.5 275.5q-13 26 -24 43t-21 27.5t-21 15t-24 5.5l-31 3v52l82 -3q32 -1 62.5 -1.5t41.5 -0.5q32 0 63 1t58.5 1.5t50.5 1.5t39 1v-52l-38 -3
q-30 -3 -47 -7.5t-17 -21.5q0 -9 7 -32t15 -41q21 -53 45.5 -115t50.5 -126.5t53.5 -129.5t53.5 -124q14 38 34.5 91t43.5 112.5t47 121t46 116t39.5 97.5t27.5 66q29 8 64 22.5t61 25.5h28q19 -44 42.5 -98t48.5 -113.5t50.5 -121.5t49 -120t44.5 -110.5t36 -92.5
q19 42 42.5 99t47.5 118t47 120.5t41 107.5q4 10 9 25.5t9.5 31.5t7.5 30.5t3 22.5q0 25 -15 33t-53 13l-37 3v52q37 0 85 -2.5t102 -2.5q29 0 51 1t40.5 1.5t34.5 1.5t33 1v-52z" />
    <glyph glyph-name="x" unicode="x" horiz-adv-x="1022" 
d="M639 635q5 5 13 14.5t15.5 21.5t13 25t5.5 24q0 17 -14 26.5t-46 11.5l-40 2v52q27 0 47 -1t40 -1.5t43 -1.5t56 -1q31 0 53 1t41.5 1.5t39.5 1.5t48 1v-52l-43 -5q-31 -4 -63.5 -30t-81.5 -80l-178 -191l272 -313q11 -14 26 -29t31 -28.5t32 -23t30 -10.5l43 -4v-52
q-13 0 -43 1t-63 2t-62 2t-39 1q-32 0 -59.5 -1t-53 -2l-51 -2t-53.5 -1v52l42 4q31 3 44.5 7t13.5 22q0 11 -9.5 28.5t-24.5 37.5q-45 48 -88.5 98t-88.5 104l-170 -182q-15 -17 -31 -38t-16 -39q0 -20 14 -29t52 -11l37 -2v-52q-27 1 -47 2t-40.5 2t-43.5 1.5t-56 0.5
q-22 0 -48.5 -1t-52 -2t-48 -2t-37.5 -1v52l43 4q19 1 38 12t38 27.5t37.5 36t36.5 38.5l235 248q-57 66 -111 128.5t-108 125.5q-41 48 -69.5 68.5t-55.5 22.5l-33 3v52l89 -3q35 0 68.5 -1t45.5 -1q32 0 59 1t51 1.5t46.5 1.5t46.5 1v-52l-25 -1q-31 -3 -47 -8.5
t-16 -22.5q0 -11 10.5 -28.5t26.5 -36.5l124 -145z" />
    <glyph glyph-name="y" unicode="y" horiz-adv-x="1020" 
d="M469 -15q-94 194 -180 369t-162 312q-15 27 -26.5 44t-21.5 26t-19.5 13t-20.5 6l-33 5v52l81 -3q32 -1 63 -1.5t43 -0.5q63 0 116 2.5t109 2.5v-52l-37 -3q-31 -3 -48.5 -9t-17.5 -20t6 -32.5t17 -43.5q29 -61 55.5 -119.5t53 -117.5t55 -121t61.5 -129q23 51 47 106
t47 111t45 109.5t41 101.5q3 6 8.5 21t11 33t9.5 35.5t4 28.5q0 25 -13.5 34t-51.5 12h-10.5t-13.5 1l-17 2v52q27 0 47 -1t40.5 -1.5t44 -1.5t56.5 -1q28 0 47 1t35.5 1.5t33.5 1.5t42 1v-52l-35 -3q-28 -2 -50 -27.5t-52 -88.5q-29 -64 -52 -113t-43 -95
q-22 -51 -44.5 -99t-49 -105t-59 -128.5t-74.5 -168.5q-52 -119 -104 -207t-108 -146.5t-117.5 -87t-133.5 -28.5q-43 0 -90.5 9t-79.5 21q0 17 -1 40t-3 47.5t-4.5 47.5t-5.5 39l41 19q35 -46 76.5 -73.5t83.5 -27.5q32 0 67.5 9.5t75 40t82.5 89.5t90 158q12 26 23 53
t20 50z" />
    <glyph glyph-name="z" unicode="z" horiz-adv-x="868" 
d="M70 0l-15 31l486 700h-45q-78 0 -124 -1t-79 -2q-35 -1 -54.5 -13.5t-29 -32t-12.5 -44t-4 -49.5h-72v29t1 27q0 23 0.5 45.5t0.5 35.5v38t-2 41l24 13q21 -4 48 -6.5t64.5 -3.5t87.5 -1h118h264l16 -32l-471 -700h144q75 0 118.5 5.5t71.5 13.5q29 7 47.5 20t30 29.5
t18 34.5t11.5 35q2 8 4 18.5t4 18.5l70 -4q-2 -16 -4 -39.5t-5 -48.5q-4 -40 -8 -84t-6 -74l-25 -11q-21 3 -46.5 5t-61.5 3.5t-85 2t-116 0.5h-364z" />
    <glyph glyph-name="braceleft" unicode="{" horiz-adv-x="717" 
d="M322 283q0 34 -15.5 63.5t-42.5 52.5t-64.5 39t-82.5 22v56q45 6 82.5 20.5t64.5 36.5t42.5 50.5t15.5 63.5q0 26 -6.5 64t-15 78.5t-15 78t-6.5 62.5q0 64 24.5 114t68.5 87t106.5 61.5t139.5 38.5l21 -51q-45 -14 -82.5 -29t-64.5 -35t-41.5 -47t-14.5 -66
q0 -24 6.5 -59.5t15 -74t15 -74.5t6.5 -60q0 -111 -67 -177.5t-195 -108.5q58 -22 106 -50.5t82.5 -65t54 -81t19.5 -97.5q0 -24 -6.5 -60t-15 -74.5t-15 -74t-6.5 -59.5q0 -38 14.5 -65t41.5 -47t64.5 -35.5t82.5 -29.5l-21 -50q-77 12 -139.5 36.5t-107 62t-68.5 88
t-24 113.5q0 26 6.5 63.5t15 77.5t15 77.5t6.5 64.5z" />
    <glyph glyph-name="bar" unicode="|" horiz-adv-x="1024" 
d="M559 1372v-1921h-96v1921h96z" />
    <glyph glyph-name="braceright" unicode="}" horiz-adv-x="717" 
d="M395 283q0 -27 6.5 -64.5t15 -77.5t15 -77.5t6.5 -63.5q0 -63 -24.5 -113t-69 -87.5t-107.5 -62.5t-139 -37l-20 50q45 14 82.5 29.5t64.5 35.5t41.5 47t14.5 65q0 24 -6.5 59.5t-15 74t-15 74.5t-6.5 60q0 53 19.5 97.5t54 81t82.5 65t106 50.5q-128 42 -195 108.5
t-67 177.5q0 24 6.5 60t15 74.5t15 74t6.5 59.5q0 39 -14.5 66t-41.5 47t-64.5 35t-82.5 29l20 51q76 -13 139 -38t107.5 -62.5t69 -87.5t24.5 -113q0 -25 -6.5 -62.5t-15 -78t-15 -78.5t-6.5 -64q0 -35 15.5 -63.5t42.5 -50.5t64.5 -36.5t82.5 -20.5v-56q-45 -6 -82.5 -22
t-64.5 -39t-42.5 -52.5t-15.5 -63.5z" />
    <glyph glyph-name="asciitilde" unicode="~" horiz-adv-x="1024" 
d="M721 551q24 0 48 8.5t46 22.5t41.5 31.5t34.5 36.5l63 -40q-19 -29 -41.5 -56t-51 -48.5t-65 -34.5t-83.5 -13q-58 0 -104.5 16t-90.5 35t-89.5 35t-102.5 16q-28 0 -54.5 -9.5t-50.5 -24.5t-44.5 -34.5t-37.5 -39.5l-69 39q23 30 48 58.5t56.5 50.5t70.5 35.5t89 13.5
q42 0 93 -15.5t103.5 -33.5t102 -33.5t88.5 -15.5z" />
    <glyph glyph-name="uni00A0" unicode="&#xa0;" horiz-adv-x="300" 
 />
    <glyph glyph-name="exclamdown" unicode="&#xa1;" horiz-adv-x="573" 
d="M300 493l32 -4v-39q0 -98 6 -208.5t16 -225.5t21.5 -229.5t22.5 -219.5q-15 -8 -37 -19t-44 -21.5t-41 -19.5t-28 -14l-47 4q6 100 12.5 205t10.5 199q6 143 15 280.5t9 272.5zM396 677v-10q-8 -6 -30.5 -15.5t-48.5 -19.5t-50.5 -18t-36.5 -10l-68 131l6 13q6 2 26 12
t43.5 22t44.5 23.5t30 17.5z" />
    <glyph glyph-name="cent" unicode="&#xa2;" horiz-adv-x="1024" 
d="M518 0v162h-29q-68 0 -134.5 26t-119 79.5t-84.5 134t-32 188.5q0 95 31.5 175.5t86 141.5t127 101t154.5 55v184h88v-176q34 0 69.5 -4.5t69 -13t63.5 -19t52 -22.5v-11q-5 -10 -12.5 -28t-15 -39t-14.5 -41t-11 -33h-29q-35 34 -78 65t-94 48v-686q62 2 102 20t72 41
l74 51l37 -49l-84 -67q-48 -39 -97.5 -66t-103.5 -41v-176h-88zM305 623q0 -63 13 -118t39 -98t66.5 -72.5t94.5 -41.5v690q-37 -4 -75 -27t-68.5 -66.5t-50 -109.5t-19.5 -157z" />
    <glyph glyph-name="sterling" unicode="&#xa3;" horiz-adv-x="1024" 
d="M551 20q49 -18 99 -28t93 -10q32 0 55 9t37.5 21.5t21.5 27t7 26.5q0 26 -9 53t-34 61l19 25q28 9 52 20.5t50 28.5q17 -17 27 -42.5t10 -53.5q0 -35 -11 -72t-34 -74q-54 -75 -125.5 -116t-153.5 -41q-37 0 -70.5 6t-65 16t-62.5 23t-64 26q-28 12 -55 23t-57 20
t-64.5 14t-77.5 5q-11 0 -26 -1t-32 -3.5t-33.5 -5t-29.5 -5.5l-22 60q42 12 75.5 42.5t59.5 73t46.5 93.5t35.5 104t26.5 104.5t20.5 94.5h-172l-2 22l20 60h168q10 45 20.5 93t22.5 95.5t27 92t35 83.5q64 130 165 204.5t234 74.5q72 0 126.5 -26t82.5 -77
q-12 -7 -26.5 -18t-28.5 -22.5t-26 -23t-19 -20.5h-25q-31 63 -69 88t-70 25q-40 0 -72.5 -26t-58.5 -70t-46 -102t-36 -121t-29 -127.5t-24 -122.5h233l6 -25l-22 -57h-230q-20 -81 -48 -154.5t-66.5 -136.5t-88 -114t-112.5 -87q51 11 102.5 17t90.5 6q48 0 105.5 -16.5
t123.5 -39.5z" />
    <glyph glyph-name="currency" unicode="&#xa4;" horiz-adv-x="1024" 
d="M829 510q0 -54 -17 -101t-48 -87l147 -146l-65 -67l-150 149q-40 -28 -86.5 -42.5t-97.5 -14.5q-54 0 -100 14.5t-84 42.5l-142 -141l-65 67l137 140q-29 38 -46 85t-17 101q0 51 17 98.5t46 85.5l-145 148l65 67l148 -149q40 28 86 43.5t100 15.5q51 0 97.5 -15.5
t84.5 -43.5l146 145l65 -67l-141 -144q31 -38 48 -85.5t17 -98.5zM723 510q0 45 -16.5 85t-45.5 70t-67.5 47t-83.5 17q-44 0 -82 -17t-66.5 -47t-44.5 -70t-16 -85q1 -46 17.5 -86t44.5 -69.5t66 -46.5t83 -17q44 0 82.5 17t67 46.5t45 69.5t16.5 86z" />
    <glyph glyph-name="yen" unicode="&#xa5;" horiz-adv-x="1024" 
d="M504 0q-15 1 -45 0.5t-67 -2t-76.5 -3t-71.5 -1.5v55l94 6q22 2 37 6t25 15.5t15 32t7 55.5q1 13 2 25.5t1.5 26t0.5 30v39.5h-301l-2 22l22 60h283v88q-5 12 -10 24.5t-10 26.5h-283l-2 22l22 60h226q-24 52 -50.5 106.5t-53 107.5t-52 103t-47.5 94q-17 31 -30.5 57
t-24.5 46q-17 32 -30.5 53t-25.5 33.5t-25 19t-28 9.5l-24 4v55q19 0 42 -1t47 -2l48 -2t45 -1q14 0 43 1t64.5 2t73 2t67.5 1v-55l-43 -4q-39 -4 -52.5 -15t-13.5 -37q0 -18 6 -39.5t12 -38.5q15 -37 33.5 -80t39 -88t42 -91t43.5 -89q20 -42 38 -78t38 -73
q12 25 29.5 62.5t37.5 81.5t42 91.5t43 91.5q18 39 35.5 80t29.5 66q8 18 16.5 43.5t8.5 48.5q0 37 -18 48.5t-58 15.5l-43 4v55q21 0 48 -1t55.5 -2t55.5 -2t48 -1q13 0 32.5 1t40 2t39.5 2t31 1v-55l-31 -4q-35 -8 -61 -50q-18 -29 -40.5 -71t-48 -92t-52 -105t-52.5 -110
t-49.5 -106.5t-42.5 -94.5h250l6 -25l-24 -57h-267l-10 -31v-108h295l6 -25l-24 -57h-277v-71t2 -50q2 -33 8.5 -53.5t18 -32.5t28 -17.5t37.5 -7.5l86 -4v-55q-21 0 -58.5 1t-78.5 2t-80 2t-63 1z" />
    <glyph glyph-name="brokenbar" unicode="&#xa6;" horiz-adv-x="1024" 
d="M559 1372v-775h-96v775h96zM559 227v-776h-96v776h96z" />
    <glyph glyph-name="section" unicode="&#xa7;" horiz-adv-x="1026" 
d="M229 1082q0 56 19 99.5t50.5 75.5t70.5 54t79.5 35.5t78 19.5t65.5 6q69 0 128 -10t99 -26q-2 -16 -4.5 -35t-4.5 -37.5t-4 -36t-3 -31.5l-39 -10q-56 64 -115 86.5t-129 22.5q-38 0 -68.5 -13t-53 -34.5t-34.5 -51t-12 -62.5q0 -51 20.5 -87t54.5 -64.5t77.5 -53
t89.5 -51.5q53 -31 105 -61t93.5 -65t67 -78.5t25.5 -100.5t-35.5 -108t-104.5 -90q38 -40 60 -85t22 -105q0 -83 -36.5 -143.5t-91 -100.5t-118.5 -59.5t-118 -19.5q-75 0 -143.5 11.5t-122.5 28.5q-2 17 -3 46.5t-3 58.5l-3 72l39 9q17 -29 43.5 -56t61.5 -48t77.5 -33.5
t90.5 -12.5q44 0 82 16t65.5 43t43.5 63t16 76q0 51 -19.5 91.5t-55 74.5t-84 63t-106.5 57q-61 30 -113.5 58.5t-90.5 62.5t-60 76.5t-22 100.5q0 34 13 63.5t34.5 52.5t49.5 40.5t58 28.5q-40 38 -61 79t-21 98zM764 524q0 44 -17.5 76.5t-51.5 61.5t-84 57.5t-115 64.5
q-42 23 -77.5 44t-64.5 44q-35 -19 -56.5 -48t-21.5 -71q0 -45 22 -77.5t58.5 -59t84.5 -50t100 -50.5q43 -23 85 -48.5t81 -55.5q27 22 42 49.5t15 62.5z" />
    <glyph glyph-name="dieresis" unicode="&#xa8;" horiz-adv-x="860" 
d="M125 1086v9q6 5 26 14.5t43.5 19t46 17.5t33.5 9l62 -106l-6 -11q-6 -2 -24 -11t-38.5 -20t-39 -22.5t-25.5 -18.5zM524 1086v9q6 5 26 14.5t44 19t46.5 17.5t33.5 9l61 -106l-6 -11q-5 -2 -23 -11t-38.5 -20t-39.5 -22.5t-26 -18.5z" />
    <glyph glyph-name="copyright" unicode="&#xa9;" horiz-adv-x="1606" 
d="M791 258q-88 0 -158 27t-119 74t-75.5 110.5t-26.5 136.5q0 79 37.5 150t100.5 124t146.5 84t175.5 31q60 0 111 -6t96 -17q0 -20 1 -45.5t2 -50t2 -47t1 -36.5l-49 -2q-9 39 -26 65.5t-41 42t-53.5 22.5t-63.5 7q-51 0 -104 -13.5t-96.5 -47t-71 -91t-27.5 -144.5
q0 -90 26 -150.5t65.5 -98t87 -53.5t91.5 -16q54 0 92.5 12t65 35t42.5 55t26 73l49 -4q0 -20 -2 -46t-5 -51t-6 -45t-4 -27q-63 -28 -134 -43t-156 -15zM211 626q0 -116 46.5 -217.5t126.5 -178t188 -120.5t231 -44t230.5 44t188 120.5t127 178t46.5 217.5q0 77 -21 148
t-59.5 133.5t-92.5 113.5t-120 88t-141.5 57t-157.5 20t-157.5 -20t-141.5 -57t-120 -88t-92.5 -113.5t-59.5 -133.5t-21 -148zM123 626q0 88 24.5 170t68.5 153t106 129t137.5 99.5t162.5 64.5t181 23t181 -23t162.5 -64.5t137.5 -99.5t106 -129t68.5 -153t24.5 -170
t-24.5 -170t-68.5 -153t-106 -129t-137.5 -99.5t-162.5 -64.5t-181 -23t-181 23t-162.5 64.5t-137.5 99.5t-106 129t-68.5 153t-24.5 170z" />
    <glyph glyph-name="ordfeminine" unicode="&#xaa;" horiz-adv-x="610" 
d="M473 687q-23 0 -40 7t-29 17.5t-19 23t-10 24.5q-17 -14 -36.5 -28t-42 -25t-48 -18t-55.5 -7q-70 0 -105 34.5t-35 91.5q0 33 12.5 57t33.5 40.5t50 27.5t62 19q17 4 38.5 8.5t42.5 9t39.5 9t30.5 8.5v40q0 22 -5 40t-18 31t-36 20t-59 7q-29 0 -63.5 -8t-63.5 -17
l-13 5l-8 32q23 9 51 19t56.5 19t54.5 14.5t45 5.5q25 0 56.5 -4.5t59 -21t46 -47.5t18.5 -83v-195q0 -51 17.5 -72.5t36.5 -21.5q20 0 49 17l20 -29q-7 -5 -19.5 -13.5t-30 -16.5t-38.5 -14t-45 -6zM367 805q-2 11 -3 30.5t-1.5 39.5t-0.5 38.5v27.5q-20 -8 -47.5 -13.5
t-50.5 -11.5q-46 -11 -64 -34.5t-18 -59.5q0 -35 17 -52t45 -17q29 0 62 15.5t61 36.5z" />
    <glyph glyph-name="guillemotleft" unicode="&#xab;" horiz-adv-x="1010" 
d="M96 400l332 344l96 -39v-16q-27 -25 -65.5 -59.5t-78.5 -72t-77 -75t-61 -67.5q7 -11 25.5 -31t44 -45t55.5 -52.5t59.5 -54t57.5 -50t48 -39.5v-16l-118 -61q-20 18 -48.5 45t-60.5 58t-65 63.5t-61.5 61.5t-50.5 52.5t-32 35.5v18zM465 400l332 344l96 -39v-16
q-27 -24 -65.5 -58.5t-79 -72.5t-77.5 -75.5t-61 -67.5q8 -11 26.5 -31t44 -44.5t55 -52.5t59 -54.5t57.5 -50t49 -39.5v-16l-119 -61q-20 18 -48.5 45t-60 58t-64.5 63.5t-61.5 61.5t-50.5 52.5t-32 35.5v18z" />
    <glyph glyph-name="logicalnot" unicode="&#xac;" horiz-adv-x="1024" 
d="M948 637v-473h-94v379h-778v94h872z" />
    <glyph glyph-name="uni00AD" unicode="&#xad;" horiz-adv-x="678" 
d="M78 448q29 1 71.5 5.5t90.5 11.5t98.5 15.5t96 16.5t82.5 15.5t58 12.5l21 -16l-4 -109q-120 -13 -203 -23.5t-138 -19t-87 -15.5t-51 -13l-29 14z" />
    <glyph glyph-name="registered" unicode="&#xae;" horiz-adv-x="1098" 
d="M471 1012l51 2q25 1 45 6.5t33 18.5t20 34t7 53q0 54 -26.5 73.5t-80.5 19.5h-49v-207zM152 993q0 -83 31 -156t84.5 -127.5t126 -86t155.5 -31.5t155.5 31.5t126 86t84.5 127.5t31 156t-31 156t-84.5 128t-126 86.5t-155.5 31.5t-155.5 -31.5t-126 -86.5t-84.5 -128
t-31 -156zM82 993q0 97 36.5 182t100 148.5t148.5 100t182 36.5t182 -36.5t148.5 -100t100 -148.5t36.5 -182t-36.5 -182t-100 -148.5t-148.5 -100t-182 -36.5t-182 36.5t-148.5 100t-100 148.5t-36.5 182zM475 784q5 -1 16 -2.5t22.5 -2.5t21 -2t10.5 -1v-37l-111 4
l-115 -4v37q1 0 8.5 0.5t17 1.5l19 2t15.5 2l2 35q1 19 1.5 49.5t0.5 75.5v117q0 75 -1 112t-3 48q-3 0 -12 1t-19 2t-18.5 2t-10.5 1v37h115q29 0 61 1t56 1q45 0 77.5 -10t54 -27t32 -38.5t10.5 -45.5q0 -63 -33 -101.5t-90 -58.5v-4q4 -5 7.5 -10.5t8.5 -10.5
q8 -10 17 -22.5t20 -26.5q26 -33 46.5 -57.5t41.5 -46.5q16 -14 37.5 -18.5t30.5 -4.5v-30q-17 -5 -34 -9t-40 -4q-22 0 -39.5 6t-33.5 19t-32 34t-36 52q-12 19 -22 34.5t-19 29t-18.5 26.5t-20.5 27h-45v-58q0 -45 0.5 -69t1.5 -37q1 -8 1 -12.5t1 -6.5z" />
    <glyph glyph-name="macron" unicode="&#xaf;" horiz-adv-x="1024" 
d="M1032 1552v-91h-1040v91h1040z" />
    <glyph glyph-name="degree" unicode="&#xb0;" horiz-adv-x="819" 
d="M727 961q0 -65 -25 -121.5t-68 -98.5t-101 -66t-123 -24q-66 0 -124 24t-100.5 66t-67.5 98.5t-26 121.5q0 63 25 119t68 98t101 67t124 25q65 0 123 -25t101 -67t68 -98t25 -119zM621 961q0 45 -16.5 85t-45.5 69.5t-68 47t-83 17.5t-82 -17.5t-66.5 -47t-44.5 -69.5
t-16 -85q1 -46 17.5 -86t44.5 -70t66 -47t83 -17q43 0 81.5 17t67.5 47t45.5 70t16.5 86z" />
    <glyph glyph-name="plusminus" unicode="&#xb1;" horiz-adv-x="1024" 
d="M559 1079v-381h389v-96h-389v-377h-96v377h-387v96h387v381h96zM948 96v-96h-872v96h872z" />
    <glyph glyph-name="uni00B2" unicode="&#xb2;" horiz-adv-x="573" 
d="M285 743q37 0 75 2t66 9q27 6 33 32l8 45l51 -4q-1 -16 -3 -39.5t-3.5 -48t-2.5 -47t-1 -37.5l-16 -16q-12 1 -42 2t-66 2t-72 1.5t-60 0.5h-189l-12 55q32 28 65 59t68 66q34 34 60.5 63.5t44.5 59t27.5 60.5t9.5 69q0 36 -12 60.5t-30.5 38.5t-41.5 20t-45 6
q-29 0 -55.5 -9.5t-49.5 -23.5l-12 7l-14 43q42 26 90 43.5t102 17.5q41 0 78 -10t65.5 -31t45 -53t16.5 -76q0 -42 -17.5 -80t-47 -75t-67.5 -73.5t-79 -74.5q-17 -16 -35.5 -31.5t-38.5 -32.5h107z" />
    <glyph glyph-name="uni00B3" unicode="&#xb3;" horiz-adv-x="573" 
d="M299 989q34 -3 69.5 -13t63.5 -28t46 -45.5t18 -64.5q0 -62 -33 -106.5t-87.5 -76.5t-126 -53.5t-149.5 -36.5l-16 45l4 11q61 14 110.5 30t85 38.5t55 53t19.5 72.5q0 33 -14.5 57t-41.5 39.5t-64.5 23t-83.5 7.5l-7 51q42 12 76 25t58 28.5t36.5 36t12.5 47.5
q0 39 -27.5 55.5t-75.5 16.5q-35 0 -70 -9.5t-61 -23.5l-12 5l-16 43q48 30 105.5 46.5t117.5 16.5q34 0 65 -7t54.5 -22.5t37 -39t13.5 -56.5q0 -38 -15.5 -65t-39.5 -46t-52.5 -31.5t-54.5 -21.5v-2z" />
    <glyph glyph-name="acute" unicode="&#xb4;" horiz-adv-x="696" 
d="M373 1253q10 -4 28 -8.5t38 -8t39.5 -6.5t33.5 -5l18 -33q-24 -27 -63 -60t-82 -66.5t-85 -64t-73 -52.5l-37 17v18q60 72 106 143.5t77 125.5z" />
    <glyph glyph-name="mu" unicode="&#xb5;" horiz-adv-x="1145" 
d="M352 -514q-41 -5 -79 -11t-89 -18l-28 14q2 26 3.5 56.5t3.5 66.5q3 63 5 151t2 209v524q0 27 -1 60.5t-2.5 66.5t-3 62t-3.5 46q-26 -5 -48 -9.5t-46 -6.5l-15 54q32 7 69 17t74.5 22t73 24t62.5 24l26 -14q-2 -21 -4.5 -59.5t-5 -90t-4.5 -114.5t-2 -132v-160
q0 -42 14.5 -75t40.5 -55.5t62 -34t80 -11.5q28 0 63.5 8.5t69.5 20t62.5 23t43.5 18.5v316q0 85 -2.5 146t-7.5 89q-26 -5 -42.5 -7.5t-39.5 -7.5l-12 55q32 7 66.5 16.5t69 21t67.5 23.5t61 24l27 -14q-3 -21 -6 -59.5t-5.5 -90t-4 -114.5t-1.5 -132v-39v-96.5t1 -75
t2.5 -60t4.5 -51.5l131 27l9 -52q-17 -4 -51.5 -15t-76 -27t-82.5 -34.5t-71 -37.5l-29 14l-4 115q-47 -31 -86.5 -52.5t-75.5 -35.5t-69.5 -20.5t-67.5 -6.5q-14 0 -33 2t-39.5 6.5t-38.5 11.5t-30 16q0 -114 2 -209t4 -168q2 -42 3 -80.5t3 -73.5z" />
    <glyph glyph-name="paragraph" unicode="&#xb6;" horiz-adv-x="1204" 
d="M735 100q0 -66 2 -129.5t4 -126.5l-86 -46l-41 17q3 14 6 55.5t6 97t6 119t5 122t3 106t1 70.5v171q-2 -1 -7 -6l-11 -11l-12.5 -12.5l-10.5 -10.5q-101 0 -194.5 27.5t-165 80t-114 128.5t-42.5 174q0 64 20 113t54.5 85t82 60.5t102 39t114 21t118.5 6.5h558l10 -19
q-7 -7 -11 -17q-11 -14 -18 -39h-160v-1007q0 -63 2.5 -127.5t4.5 -127.5l-87 -47l-40 17q3 14 6 52t6 89t5.5 109.5t4.5 113t3 99t1 67.5v766h-125v-1080zM442 903q0 -72 21 -127.5t51.5 -94.5t65 -61.5t61.5 -28.5v589q-32 -2 -67 -17.5t-64.5 -48t-48.5 -84.5t-19 -127z
" />
    <glyph glyph-name="periodcentered" unicode="&#xb7;" horiz-adv-x="573" 
d="M154 592v10q9 7 34 18.5t53.5 22.5t55.5 19.5t40 10.5l75 -147l-6 -13q-8 -2 -30 -12.5t-47.5 -24t-48.5 -26.5t-33 -20z" />
    <glyph glyph-name="cedilla" unicode="&#xb8;" horiz-adv-x="614" 
d="M225 -441q-21 0 -41 4t-38 10.5t-32.5 14.5t-23.5 15q5 9 12 21.5t13.5 26.5t12.5 28t9 25h21q21 -31 50.5 -47.5t74.5 -16.5q13 0 25.5 5.5t21.5 13.5t14.5 18t5.5 18q0 23 -23.5 42.5t-52.5 38.5q-35 23 -56 46.5t-21 48.5q0 16 16.5 38.5t41 44.5t52 40.5t49.5 27.5
l41 -11l4 -7q-15 -6 -29.5 -18.5t-26 -27.5t-19 -29t-7.5 -23q0 -6 6 -13t15.5 -13.5t20.5 -13.5t20 -13q16 -10 31 -21.5t27 -25t19 -29t7 -31.5q0 -27 -20.5 -60t-54 -61t-77 -47t-88.5 -19z" />
    <glyph glyph-name="uni00B9" unicode="&#xb9;" horiz-adv-x="573" 
d="M236 748v19.5t1 18.5q1 16 1 32v26v350q-31 -17 -61.5 -35t-59.5 -35l-15 6v60l199 96h57q-1 -21 -2 -47t-1.5 -50.5t-0.5 -44.5v-28v-179.5t1 -112.5q1 -25 1 -43.5v-32.5q0 -31 15 -39.5t37 -10.5l67 -8v-47q-13 0 -42.5 0.5t-62 0.5t-61 0.5t-39.5 0.5q-24 0 -50 -0.5
t-48.5 -0.5t-40 -0.5t-25.5 -0.5v47l80 8q10 1 19 2.5t15.5 6.5t10.5 14.5t5 26.5z" />
    <glyph glyph-name="ordmasculine" unicode="&#xba;" horiz-adv-x="694" 
d="M369 1270q58 0 106.5 -18.5t83.5 -53t54.5 -83.5t19.5 -109q0 -57 -21.5 -108.5t-61 -90t-96 -61.5t-126.5 -23q-64 0 -113.5 21.5t-83.5 58t-52 84t-18 100.5q0 67 24.5 119.5t66.5 89t98 55.5t119 19zM199 1022q0 -55 13 -98.5t35.5 -73.5t54 -46t67.5 -16
q55 0 91 47.5t36 141.5q0 109 -46 169t-124 60q-17 0 -39 -8t-41.5 -29t-33 -56.5t-13.5 -90.5z" />
    <glyph glyph-name="guillemotright" unicode="&#xbb;" horiz-adv-x="1012" 
d="M545 397l-332 -343l-96 38v16q27 25 65.5 59.5t78.5 72t77 75t61 67.5q-7 11 -25.5 31t-43.5 45t-55 53t-60 54.5t-57.5 49.5t-48.5 39v16l118 61q20 -18 48.5 -45t60.5 -58t65 -63.5t61.5 -61.5t50.5 -52.5t32 -35.5v-18zM915 397l-331 -343l-97 38v16q28 25 66.5 60
t78.5 73t77 75t61 66q-8 11 -26.5 31t-44 44.5t-55 52.5t-59 54.5t-57.5 50t-49 39.5v16l119 61q20 -18 49 -44.5t60.5 -57.5t64 -64t61 -62t50.5 -52.5t32 -35.5v-18z" />
    <glyph glyph-name="onequarter" unicode="&#xbc;" horiz-adv-x="1282" 
d="M236 748v19.5t1 18.5q1 16 1 32v26v350q-31 -17 -61.5 -35t-59.5 -35l-15 6v60l199 96h57q-1 -21 -2 -47t-1.5 -50.5t-0.5 -44.5v-28v-179.5t1 -112.5q1 -25 1 -43.5v-32.5q0 -31 15 -39.5t37 -10.5l67 -8v-47q-13 0 -42.5 0.5t-62 0.5t-61 0.5t-39.5 0.5q-24 0 -50 -0.5
t-48.5 -0.5t-40 -0.5t-25.5 -0.5v47l80 8q10 1 19 2.5t15.5 6.5t10.5 14.5t5 26.5zM172 31l860 1247l82 -49l-864 -1252zM1079 157v-71.5t1 -41.5q1 -9 1 -15v-9l-116 -22l-19 8l2 37q1 19 1.5 47.5t0.5 68.5v9h-284l-8 61l282 410l109 26l32 -6q0 -18 -0.5 -44.5
t-0.5 -58.5t-0.5 -66.5t-0.5 -68.5v-167q14 0 33.5 0.5t37.5 2.5l44 3l4 -11q-6 -18 -12.5 -41t-9.5 -40h-97v-11zM950 548q-49 -69 -100 -145.5t-100 -148.5h200v294z" />
    <glyph glyph-name="onehalf" unicode="&#xbd;" horiz-adv-x="1282" 
d="M236 748v19.5t1 18.5q1 16 1 32v26v350q-31 -17 -61.5 -35t-59.5 -35l-15 6v60l199 96h57q-1 -21 -2 -47t-1.5 -50.5t-0.5 -44.5v-28v-179.5t1 -112.5q1 -25 1 -43.5v-32.5q0 -31 15 -39.5t37 -10.5l67 -8v-47q-13 0 -42.5 0.5t-62 0.5t-61 0.5t-39.5 0.5q-24 0 -50 -0.5
t-48.5 -0.5t-40 -0.5t-25.5 -0.5v47l80 8q10 1 19 2.5t15.5 6.5t10.5 14.5t5 26.5zM149 31l860 1247l82 -49l-864 -1252zM983 100q37 0 75 2t66 9q27 6 33 32l8 45l51 -4q-1 -16 -3 -39.5t-3.5 -48t-2.5 -47t-1 -37.5l-16 -16q-12 1 -42 2t-66 2t-72 1.5t-60 0.5h-189
l-12 55q32 28 65 59t68 66q34 34 60.5 63.5t44.5 59t27.5 60.5t9.5 69q0 36 -12 60.5t-30.5 38.5t-41.5 20t-45 6q-29 0 -55.5 -9.5t-49.5 -23.5l-12 7l-14 43q42 26 90 43.5t102 17.5q41 0 78 -10t65.5 -31t45 -53t16.5 -76q0 -42 -17.5 -80t-47 -75t-67.5 -73.5t-79 -74.5
q-17 -16 -35.5 -31.5t-38.5 -32.5h107z" />
    <glyph glyph-name="threequarters" unicode="&#xbe;" horiz-adv-x="1282" 
d="M299 989q34 -3 69.5 -13t63.5 -28t46 -45.5t18 -64.5q0 -62 -33 -106.5t-87.5 -76.5t-126 -53.5t-149.5 -36.5l-16 45l4 11q61 14 110.5 30t85 38.5t55 53t19.5 72.5q0 33 -14.5 57t-41.5 39.5t-64.5 23t-83.5 7.5l-7 51q42 12 76 25t58 28.5t36.5 36t12.5 47.5
q0 39 -27.5 55.5t-75.5 16.5q-35 0 -70 -9.5t-61 -23.5l-12 5l-16 43q48 30 105.5 46.5t117.5 16.5q34 0 65 -7t54.5 -22.5t37 -39t13.5 -56.5q0 -38 -15.5 -65t-39.5 -46t-52.5 -31.5t-54.5 -21.5v-2zM172 31l860 1247l82 -49l-864 -1252zM1079 157v-71.5t1 -41.5
q1 -9 1 -15v-9l-116 -22l-19 8l2 37q1 19 1.5 47.5t0.5 68.5v9h-284l-8 61l282 410l109 26l32 -6q0 -18 -0.5 -44.5t-0.5 -58.5t-0.5 -66.5t-0.5 -68.5v-167q14 0 33.5 0.5t37.5 2.5l44 3l4 -11q-6 -18 -12.5 -41t-9.5 -40h-97v-11zM950 548q-49 -69 -100 -145.5
t-100 -148.5h200v294z" />
    <glyph glyph-name="questiondown" unicode="&#xbf;" horiz-adv-x="834" 
d="M92 -222q0 58 19 103t55 87.5t87.5 89t115.5 106.5q31 29 43 52t12 52q0 18 -8 36.5t-20 35t-27 31t-29 24.5l2 15q17 8 33 15t35 18q29 -13 59.5 -33t58.5 -42t50 -44t34 -39l-4 -23q-18 -11 -41.5 -29.5t-49 -41t-51 -47t-46.5 -46.5q-38 -40 -66.5 -74t-48 -68
t-29.5 -70.5t-10 -81.5q0 -30 13.5 -59t37.5 -52.5t55.5 -38t67.5 -14.5q78 0 142 33.5t110 80.5l23 -4l28 -40q-27 -30 -64.5 -65t-83 -66t-96.5 -51.5t-104 -20.5q-63 0 -118 21t-96.5 58t-65 86.5t-23.5 105.5zM549 698l4 -9q-5 -6 -23.5 -20.5t-42 -30.5t-45.5 -30.5
t-34 -20.5l-97 116l2 13q5 2 21 15.5t35 31t37 34t26 23.5z" />
    <glyph glyph-name="Agrave" unicode="&#xc0;" horiz-adv-x="1397" 
d="M1049 106q0 14 -9.5 46.5t-25 77t-37 98.5t-45.5 111q-30 0 -76 -0.5t-99 -0.5t-109 -1t-106 -1t-89.5 -0.5t-59.5 -0.5q-27 -60 -48.5 -112.5t-37 -94.5t-23.5 -71.5t-8 -42.5q0 -38 22.5 -50.5t70.5 -15.5l34 -2v-52q-22 1 -51.5 2t-61 2t-61.5 1.5t-53 0.5
q-14 0 -38 -0.5t-50.5 -1.5t-50.5 -2t-37 -2v52l47 4q28 3 46.5 19t37.5 45q15 23 40.5 74t67 141t102 224.5t146.5 324.5q18 40 41.5 94t44.5 103q13 29 25 58t25 59l-15 30l8 16l175 46q33 -93 55.5 -154t40.5 -108t35 -89.5t39.5 -98.5t54 -135t78.5 -199q15 -39 35 -87
t42.5 -98t46 -97.5t46.5 -85t43.5 -60.5t37.5 -24l52 -2v-52q-27 1 -55.5 2l-57 2t-55.5 1.5t-49 0.5q-19 0 -52 -0.5t-71 -1.5t-77 -2t-69 -2v52l62 4q24 2 39 7.5t23.5 13t11 16.5t2.5 19zM678 1082q-63 -134 -127 -279t-121 -283q53 -1 117 -2t128.5 -1.5t124.5 -0.5h105
q-24 63 -52.5 136.5t-58.5 149t-60 148t-56 132.5zM559 1613q45 -49 101.5 -110.5t131.5 -124.5v-17l-26 -23q-37 17 -85 40t-96.5 49t-92 52t-72.5 49l10 33q13 5 32 12t38.5 14t35.5 14t23 12z" />
    <glyph glyph-name="Aacute" unicode="&#xc1;" horiz-adv-x="1397" 
d="M1049 106q0 14 -9.5 46.5t-25 77t-37 98.5t-45.5 111q-30 0 -76 -0.5t-99 -0.5t-109 -1t-106 -1t-89.5 -0.5t-59.5 -0.5q-27 -60 -48.5 -112.5t-37 -94.5t-23.5 -71.5t-8 -42.5q0 -38 22.5 -50.5t70.5 -15.5l34 -2v-52q-22 1 -51.5 2t-61 2t-61.5 1.5t-53 0.5
q-14 0 -38 -0.5t-50.5 -1.5t-50.5 -2t-37 -2v52l47 4q28 3 46.5 19t37.5 45q15 23 40.5 74t67 141t102 224.5t146.5 324.5q18 40 41.5 94t44.5 103q13 29 25 58t25 59l-15 30l8 16l175 46q33 -93 55.5 -154t40.5 -108t35 -89.5t39.5 -98.5t54 -135t78.5 -199q15 -39 35 -87
t42.5 -98t46 -97.5t46.5 -85t43.5 -60.5t37.5 -24l52 -2v-52q-27 1 -55.5 2l-57 2t-55.5 1.5t-49 0.5q-19 0 -52 -0.5t-71 -1.5t-77 -2t-69 -2v52l62 4q24 2 39 7.5t23.5 13t11 16.5t2.5 19zM678 1082q-63 -134 -127 -279t-121 -283q53 -1 117 -2t128.5 -1.5t124.5 -0.5h105
q-24 63 -52.5 136.5t-58.5 149t-60 148t-56 132.5zM836 1613q7 -5 23 -12t35.5 -14t38.5 -14t32 -12l10 -33q-29 -23 -72.5 -49t-92 -52t-96.5 -49t-85 -40l-26 23v17q75 63 131.5 124.5t101.5 110.5z" />
    <glyph glyph-name="Acircumflex" unicode="&#xc2;" horiz-adv-x="1397" 
d="M1049 106q0 14 -9.5 46.5t-25 77t-37 98.5t-45.5 111q-30 0 -76 -0.5t-99 -0.5t-109 -1t-106 -1t-89.5 -0.5t-59.5 -0.5q-27 -60 -48.5 -112.5t-37 -94.5t-23.5 -71.5t-8 -42.5q0 -38 22.5 -50.5t70.5 -15.5l34 -2v-52q-22 1 -51.5 2t-61 2t-61.5 1.5t-53 0.5
q-14 0 -38 -0.5t-50.5 -1.5t-50.5 -2t-37 -2v52l47 4q28 3 46.5 19t37.5 45q15 23 40.5 74t67 141t102 224.5t146.5 324.5q18 40 41.5 94t44.5 103q13 29 25 58t25 59l-15 30l8 16l175 46q33 -93 55.5 -154t40.5 -108t35 -89.5t39.5 -98.5t54 -135t78.5 -199q15 -39 35 -87
t42.5 -98t46 -97.5t46.5 -85t43.5 -60.5t37.5 -24l52 -2v-52q-27 1 -55.5 2l-57 2t-55.5 1.5t-49 0.5q-19 0 -52 -0.5t-71 -1.5t-77 -2t-69 -2v52l62 4q24 2 39 7.5t23.5 13t11 16.5t2.5 19zM678 1082q-63 -134 -127 -279t-121 -283q53 -1 117 -2t128.5 -1.5t124.5 -0.5h105
q-24 63 -52.5 136.5t-58.5 149t-60 148t-56 132.5zM721 1513q-23 -19 -52.5 -41.5t-61.5 -45t-64.5 -44t-61.5 -38.5l-37 13v15q28 28 56.5 59.5t54.5 62.5t47.5 59.5t36.5 50.5h164q18 -25 42 -54t50.5 -59.5t54 -61t53.5 -57.5v-15l-37 -13q-27 17 -59.5 38.5t-65.5 44
t-64.5 45t-55.5 41.5z" />
    <glyph glyph-name="Atilde" unicode="&#xc3;" horiz-adv-x="1397" 
d="M1049 106q0 14 -9.5 46.5t-25 77t-37 98.5t-45.5 111q-30 0 -76 -0.5t-99 -0.5t-109 -1t-106 -1t-89.5 -0.5t-59.5 -0.5q-27 -60 -48.5 -112.5t-37 -94.5t-23.5 -71.5t-8 -42.5q0 -38 22.5 -50.5t70.5 -15.5l34 -2v-52q-22 1 -51.5 2t-61 2t-61.5 1.5t-53 0.5
q-14 0 -38 -0.5t-50.5 -1.5t-50.5 -2t-37 -2v52l47 4q28 3 46.5 19t37.5 45q15 23 40.5 74t67 141t102 224.5t146.5 324.5q18 40 41.5 94t44.5 103q13 29 25 58t25 59l-15 30l8 16l175 46q33 -93 55.5 -154t40.5 -108t35 -89.5t39.5 -98.5t54 -135t78.5 -199q15 -39 35 -87
t42.5 -98t46 -97.5t46.5 -85t43.5 -60.5t37.5 -24l52 -2v-52q-27 1 -55.5 2l-57 2t-55.5 1.5t-49 0.5q-19 0 -52 -0.5t-71 -1.5t-77 -2t-69 -2v52l62 4q24 2 39 7.5t23.5 13t11 16.5t2.5 19zM678 1082q-63 -134 -127 -279t-121 -283q53 -1 117 -2t128.5 -1.5t124.5 -0.5h105
q-24 63 -52.5 136.5t-58.5 149t-60 148t-56 132.5zM583 1509q-12 0 -30.5 -6.5t-40 -18t-44 -26.5t-42.5 -32l-41 42q26 22 59 46t67.5 44.5t67.5 33.5t60 13q31 0 65.5 -15t69.5 -37t64 -37.5t52 -15.5q15 0 32.5 7.5t34.5 20t34 29t31 33.5l45 -33q-20 -27 -46.5 -54
t-57 -49.5t-63.5 -36.5t-65 -14t-70.5 15.5t-70.5 37.5t-61.5 37.5t-49.5 15.5z" />
    <glyph glyph-name="Adieresis" unicode="&#xc4;" horiz-adv-x="1397" 
d="M1049 106q0 14 -9.5 46.5t-25 77t-37 98.5t-45.5 111q-30 0 -76 -0.5t-99 -0.5t-109 -1t-106 -1t-89.5 -0.5t-59.5 -0.5q-27 -60 -48.5 -112.5t-37 -94.5t-23.5 -71.5t-8 -42.5q0 -38 22.5 -50.5t70.5 -15.5l34 -2v-52q-22 1 -51.5 2t-61 2t-61.5 1.5t-53 0.5
q-14 0 -38 -0.5t-50.5 -1.5t-50.5 -2t-37 -2v52l47 4q28 3 46.5 19t37.5 45q15 23 40.5 74t67 141t102 224.5t146.5 324.5q18 40 41.5 94t44.5 103q13 29 25 58t25 59l-15 30l8 16l175 46q33 -93 55.5 -154t40.5 -108t35 -89.5t39.5 -98.5t54 -135t78.5 -199q15 -39 35 -87
t42.5 -98t46 -97.5t46.5 -85t43.5 -60.5t37.5 -24l52 -2v-52q-27 1 -55.5 2l-57 2t-55.5 1.5t-49 0.5q-19 0 -52 -0.5t-71 -1.5t-77 -2t-69 -2v52l62 4q24 2 39 7.5t23.5 13t11 16.5t2.5 19zM678 1082q-63 -134 -127 -279t-121 -283q53 -1 117 -2t128.5 -1.5t124.5 -0.5h105
q-24 63 -52.5 136.5t-58.5 149t-60 148t-56 132.5zM414 1520v9q6 5 26 14.5t43.5 19t46 17.5t33.5 9l62 -106l-6 -11q-6 -2 -24 -11t-38.5 -20t-39 -22.5t-25.5 -18.5zM813 1520v9q6 5 26 14.5t44 19t46.5 17.5t33.5 9l61 -106l-6 -11q-5 -2 -23 -11t-38.5 -20t-39.5 -22.5
t-26 -18.5z" />
    <glyph glyph-name="Aring" unicode="&#xc5;" horiz-adv-x="1397" 
d="M1049 106q0 14 -9.5 46.5t-25 77t-37 98.5t-45.5 111q-30 0 -76 -0.5t-99 -0.5t-109 -1t-106 -1t-89.5 -0.5t-59.5 -0.5q-27 -60 -48.5 -112.5t-37 -94.5t-23.5 -71.5t-8 -42.5q0 -38 22.5 -50.5t70.5 -15.5l34 -2v-52q-22 1 -51.5 2t-61 2t-61.5 1.5t-53 0.5
q-14 0 -38 -0.5t-50.5 -1.5t-50.5 -2t-37 -2v52l47 4q28 3 46.5 19t37.5 45q15 23 40.5 74t67 141t102 224.5t146.5 324.5q18 40 41.5 94t44.5 103q13 29 25 58t25 59l-15 30l8 16l175 46q33 -93 55.5 -154t40.5 -108t35 -89.5t39.5 -98.5t54 -135t78.5 -199q15 -39 35 -87
t42.5 -98t46 -97.5t46.5 -85t43.5 -60.5t37.5 -24l52 -2v-52q-27 1 -55.5 2l-57 2t-55.5 1.5t-49 0.5q-19 0 -52 -0.5t-71 -1.5t-77 -2t-69 -2v52l62 4q24 2 39 7.5t23.5 13t11 16.5t2.5 19zM678 1082q-63 -134 -127 -279t-121 -283q53 -1 117 -2t128.5 -1.5t124.5 -0.5h105
q-24 63 -52.5 136.5t-58.5 149t-60 148t-56 132.5zM893 1360q0 -74 -48 -120.5t-144 -46.5q-94 0 -142.5 46t-48.5 121q0 35 12.5 64.5t36.5 51t59.5 33.5t82.5 12q96 0 144 -45.5t48 -115.5zM805 1360q0 45 -29 71.5t-75 26.5q-48 0 -75.5 -26.5t-27.5 -71.5
q0 -48 27.5 -75.5t75.5 -27.5q46 0 75 27.5t29 75.5z" />
    <glyph glyph-name="AE" unicode="&#xc6;" horiz-adv-x="1800" 
d="M1227 1251q136 0 224 1.5t130 9.5l25 -13v-300l-66 -3q-12 74 -31.5 131.5t-58.5 77.5q-26 11 -80 17t-129 6h-194q-2 -52 -3.5 -148.5t-1.5 -250.5v-99h480l6 -14q-8 -17 -14.5 -33.5t-12.5 -39.5q-100 8 -182 9.5t-145 1.5h-132v-529h277q72 0 120 6t74 17q22 10 38 28
t27.5 40.5t18.5 48t11 51.5l8 54l70 -4q-2 -20 -4.5 -59t-5 -85l-5 -92t-4.5 -80l-25 -11q-42 7 -122.5 9t-214.5 2h-314q-7 0 -28 -0.5t-50 -1t-62.5 -1.5t-64.5 -1.5t-56.5 -1t-37.5 -0.5v52l107 8q39 2 51 27t14 73q1 35 2.5 107t1.5 178q-100 -2 -197.5 -3t-197.5 -1
q-40 -66 -73 -119.5t-56 -95.5t-36 -73t-13 -52q0 -26 20 -35.5t62 -11.5l43 -2v-52q-23 1 -55.5 2t-67 2t-67.5 1.5t-56 0.5q-14 0 -38 -0.5t-50 -1.5t-49.5 -2t-36.5 -2v52l55 8q28 4 49.5 17.5t47.5 42.5q5 5 30 41.5t63.5 94.5t88.5 134.5t104.5 161t111 173t109.5 172
t98.5 157.5t78.5 130q-16 14 -36.5 17.5t-41.5 5.5l-62 4v52l135 -3q26 -1 51.5 -1.5t47 -1t36.5 -0.5h21h240zM862 1051q-85 -129 -168 -262.5t-168 -268.5h342v294q0 29 -0.5 60.5t-1.5 63t-2 60.5t-2 53z" />
    <glyph glyph-name="Ccedilla" unicode="&#xc7;" horiz-adv-x="1339" 
d="M735 -19q-147 0 -264.5 47t-199.5 129.5t-125.5 194.5t-43.5 241q0 93 28.5 180.5t79.5 163.5t122 139.5t156.5 108.5t181.5 70t198 25q94 0 182 -10.5t160 -29.5q0 -29 2.5 -70t5 -84t5 -82t2.5 -63l-64 -4q-16 68 -45 115.5t-70 77t-93.5 43t-116.5 13.5
q-62 0 -126.5 -11.5t-125.5 -37t-114.5 -67t-93.5 -102.5t-63.5 -142.5t-23.5 -186.5q0 -109 22 -194t59 -148.5t86.5 -108t105 -72t113 -40t111.5 -12.5q100 0 167.5 21t112.5 60.5t71.5 96t44.5 127.5l63 -3q0 -37 -4 -84t-9.5 -91t-11 -78t-8.5 -45q-100 -42 -216 -64.5
t-261 -22.5zM647 -441q-21 0 -41 4t-38 10.5t-32.5 14.5t-23.5 15q5 9 12 21.5t13.5 26.5t12.5 28t9 25h21q21 -31 50.5 -47.5t74.5 -16.5q13 0 25.5 5.5t21.5 13.5t14.5 18t5.5 18q0 23 -23.5 42.5t-52.5 38.5q-35 23 -56 46.5t-21 48.5q0 16 16.5 38.5t41 44.5t52 40.5
t49.5 27.5l41 -11l4 -7q-15 -6 -29.5 -18.5t-26 -27.5t-19 -29t-7.5 -23q0 -6 6 -13t15.5 -13.5t20.5 -13.5t20 -13q16 -10 31 -21.5t27 -25t19 -29t7 -31.5q0 -27 -20.5 -60t-54 -61t-77 -47t-88.5 -19z" />
    <glyph glyph-name="Egrave" unicode="&#xc8;" horiz-adv-x="1169" 
d="M596 1251q136 0 224 1.5t130 9.5l25 -13v-300l-66 -3q-12 74 -31.5 131.5t-58.5 77.5q-26 11 -80 17t-129 6h-194q-2 -52 -3 -148.5t-1 -250.5v-99h479l6 -14q-8 -17 -14 -33.5t-13 -39.5q-100 8 -182 9.5t-145 1.5h-131v-529h276q72 0 120.5 6t74.5 17q21 10 37 28
t27 40.5t18.5 48t11.5 51.5l8 54l70 -4l-19 -316l-24 -11q-42 7 -123 9t-215 2h-314q-7 0 -28 -0.5t-50 -1t-62 -1.5t-64 -1.5t-56.5 -1t-38.5 -0.5v52l107 8q19 1 31.5 5.5t19.5 16t10 30t4 48.5q2 43 3.5 132t1.5 228v300q0 43 -1 91t-2.5 89t-3 70t-2.5 35q-2 31 -6 50
t-11.5 30.5t-19.5 16t-30 5.5l-64 4v52q8 0 28.5 -0.5t47 -1t55.5 -1.5t55 -1.5t45.5 -1t26.5 -0.5h240zM465 1613q45 -49 101.5 -110.5t131.5 -124.5v-17l-26 -23q-37 17 -85 40t-96.5 49t-92 52t-72.5 49l10 33q13 5 32 12t38.5 14t35.5 14t23 12z" />
    <glyph glyph-name="Eacute" unicode="&#xc9;" horiz-adv-x="1169" 
d="M596 1251q136 0 224 1.5t130 9.5l25 -13v-300l-66 -3q-12 74 -31.5 131.5t-58.5 77.5q-26 11 -80 17t-129 6h-194q-2 -52 -3 -148.5t-1 -250.5v-99h479l6 -14q-8 -17 -14 -33.5t-13 -39.5q-100 8 -182 9.5t-145 1.5h-131v-529h276q72 0 120.5 6t74.5 17q21 10 37 28
t27 40.5t18.5 48t11.5 51.5l8 54l70 -4l-19 -316l-24 -11q-42 7 -123 9t-215 2h-314q-7 0 -28 -0.5t-50 -1t-62 -1.5t-64 -1.5t-56.5 -1t-38.5 -0.5v52l107 8q19 1 31.5 5.5t19.5 16t10 30t4 48.5q2 43 3.5 132t1.5 228v300q0 43 -1 91t-2.5 89t-3 70t-2.5 35q-2 31 -6 50
t-11.5 30.5t-19.5 16t-30 5.5l-64 4v52q8 0 28.5 -0.5t47 -1t55.5 -1.5t55 -1.5t45.5 -1t26.5 -0.5h240zM696 1613q7 -5 23 -12t35.5 -14t38.5 -14t32 -12l10 -33q-29 -23 -72.5 -49t-92 -52t-96.5 -49t-85 -40l-26 23v17q75 63 131.5 124.5t101.5 110.5z" />
    <glyph glyph-name="Ecircumflex" unicode="&#xca;" horiz-adv-x="1169" 
d="M596 1251q136 0 224 1.5t130 9.5l25 -13v-300l-66 -3q-12 74 -31.5 131.5t-58.5 77.5q-26 11 -80 17t-129 6h-194q-2 -52 -3 -148.5t-1 -250.5v-99h479l6 -14q-8 -17 -14 -33.5t-13 -39.5q-100 8 -182 9.5t-145 1.5h-131v-529h276q72 0 120.5 6t74.5 17q21 10 37 28
t27 40.5t18.5 48t11.5 51.5l8 54l70 -4l-19 -316l-24 -11q-42 7 -123 9t-215 2h-314q-7 0 -28 -0.5t-50 -1t-62 -1.5t-64 -1.5t-56.5 -1t-38.5 -0.5v52l107 8q19 1 31.5 5.5t19.5 16t10 30t4 48.5q2 43 3.5 132t1.5 228v300q0 43 -1 91t-2.5 89t-3 70t-2.5 35q-2 31 -6 50
t-11.5 30.5t-19.5 16t-30 5.5l-64 4v52q8 0 28.5 -0.5t47 -1t55.5 -1.5t55 -1.5t45.5 -1t26.5 -0.5h240zM578 1513q-23 -19 -52.5 -41.5t-61.5 -45t-64.5 -44t-61.5 -38.5l-37 13v15q28 28 56.5 59.5t54.5 62.5t47.5 59.5t36.5 50.5h164q18 -25 42 -54t50.5 -59.5t54 -61
t53.5 -57.5v-15l-37 -13q-27 17 -59.5 38.5t-65.5 44t-64.5 45t-55.5 41.5z" />
    <glyph glyph-name="Edieresis" unicode="&#xcb;" horiz-adv-x="1169" 
d="M596 1251q136 0 224 1.5t130 9.5l25 -13v-300l-66 -3q-12 74 -31.5 131.5t-58.5 77.5q-26 11 -80 17t-129 6h-194q-2 -52 -3 -148.5t-1 -250.5v-99h479l6 -14q-8 -17 -14 -33.5t-13 -39.5q-100 8 -182 9.5t-145 1.5h-131v-529h276q72 0 120.5 6t74.5 17q21 10 37 28
t27 40.5t18.5 48t11.5 51.5l8 54l70 -4l-19 -316l-24 -11q-42 7 -123 9t-215 2h-314q-7 0 -28 -0.5t-50 -1t-62 -1.5t-64 -1.5t-56.5 -1t-38.5 -0.5v52l107 8q19 1 31.5 5.5t19.5 16t10 30t4 48.5q2 43 3.5 132t1.5 228v300q0 43 -1 91t-2.5 89t-3 70t-2.5 35q-2 31 -6 50
t-11.5 30.5t-19.5 16t-30 5.5l-64 4v52q8 0 28.5 -0.5t47 -1t55.5 -1.5t55 -1.5t45.5 -1t26.5 -0.5h240zM268 1522v9q6 5 26 14.5t43.5 19t46 17.5t33.5 9l62 -106l-6 -11q-6 -2 -24 -11t-38.5 -20t-39 -22.5t-25.5 -18.5zM667 1522v9q6 5 26 14.5t44 19t46.5 17.5t33.5 9
l61 -106l-6 -11q-5 -2 -23 -11t-38.5 -20t-39.5 -22.5t-26 -18.5z" />
    <glyph glyph-name="Igrave" unicode="&#xcc;" horiz-adv-x="647" 
d="M588 46v-52q-29 1 -66.5 2t-73.5 2t-67 1.5t-47 0.5q-25 0 -58 -0.5t-70 -1.5t-76.5 -2t-78.5 -2v52l92 4q22 1 38.5 6t27 16.5t16 31.5t7.5 50q2 43 3 132t1 228v300q0 43 -1 91t-2 89t-2.5 70t-2.5 35q-5 31 -10.5 50.5t-15 30.5t-23.5 15.5t-36 5.5l-90 4v52
q25 -1 65 -2t81 -2t76.5 -1.5t50.5 -0.5q75 0 138.5 2t123.5 4v-52l-86 -4q-21 -1 -35 -5.5t-23 -15.5t-14.5 -30.5t-9.5 -50.5q-1 -5 -2 -34t-2.5 -70.5t-2.5 -89.5t-1 -91v-300q0 -150 1 -236t3 -124q2 -30 7.5 -50t16 -31.5t26 -16.5t36.5 -6zM217 1613
q45 -49 101.5 -110.5t131.5 -124.5v-17l-26 -23q-37 17 -85 40t-96.5 49t-92 52t-72.5 49l10 33q13 5 32 12t38.5 14t35.5 14t23 12z" />
    <glyph glyph-name="Iacute" unicode="&#xcd;" horiz-adv-x="647" 
d="M588 46v-52q-29 1 -66.5 2t-73.5 2t-67 1.5t-47 0.5q-25 0 -58 -0.5t-70 -1.5t-76.5 -2t-78.5 -2v52l92 4q22 1 38.5 6t27 16.5t16 31.5t7.5 50q2 43 3 132t1 228v300q0 43 -1 91t-2 89t-2.5 70t-2.5 35q-5 31 -10.5 50.5t-15 30.5t-23.5 15.5t-36 5.5l-90 4v52
q25 -1 65 -2t81 -2t76.5 -1.5t50.5 -0.5q75 0 138.5 2t123.5 4v-52l-86 -4q-21 -1 -35 -5.5t-23 -15.5t-14.5 -30.5t-9.5 -50.5q-1 -5 -2 -34t-2.5 -70.5t-2.5 -89.5t-1 -91v-300q0 -150 1 -236t3 -124q2 -30 7.5 -50t16 -31.5t26 -16.5t36.5 -6zM444 1613q7 -5 23 -12
t35.5 -14t38.5 -14t32 -12l10 -33q-29 -23 -72.5 -49t-92 -52t-96.5 -49t-85 -40l-26 23v17q75 63 131.5 124.5t101.5 110.5z" />
    <glyph glyph-name="Icircumflex" unicode="&#xce;" horiz-adv-x="647" 
d="M588 46v-52q-29 1 -66.5 2t-73.5 2t-67 1.5t-47 0.5q-25 0 -58 -0.5t-70 -1.5t-76.5 -2t-78.5 -2v52l92 4q22 1 38.5 6t27 16.5t16 31.5t7.5 50q2 43 3 132t1 228v300q0 43 -1 91t-2 89t-2.5 70t-2.5 35q-5 31 -10.5 50.5t-15 30.5t-23.5 15.5t-36 5.5l-90 4v52
q25 -1 65 -2t81 -2t76.5 -1.5t50.5 -0.5q75 0 138.5 2t123.5 4v-52l-86 -4q-21 -1 -35 -5.5t-23 -15.5t-14.5 -30.5t-9.5 -50.5q-1 -5 -2 -34t-2.5 -70.5t-2.5 -89.5t-1 -91v-300q0 -150 1 -236t3 -124q2 -30 7.5 -50t16 -31.5t26 -16.5t36.5 -6zM326 1513
q-23 -19 -52.5 -41.5t-61.5 -45t-64.5 -44t-61.5 -38.5l-37 13v15q28 28 56.5 59.5t54.5 62.5t47.5 59.5t36.5 50.5h164q18 -25 42 -54t50.5 -59.5t54 -61t53.5 -57.5v-15l-37 -13q-27 17 -59.5 38.5t-65.5 44t-64.5 45t-55.5 41.5z" />
    <glyph glyph-name="Idieresis" unicode="&#xcf;" horiz-adv-x="647" 
d="M588 46v-52q-29 1 -66.5 2t-73.5 2t-67 1.5t-47 0.5q-25 0 -58 -0.5t-70 -1.5t-76.5 -2t-78.5 -2v52l92 4q22 1 38.5 6t27 16.5t16 31.5t7.5 50q2 43 3 132t1 228v300q0 43 -1 91t-2 89t-2.5 70t-2.5 35q-5 31 -10.5 50.5t-15 30.5t-23.5 15.5t-36 5.5l-90 4v52
q25 -1 65 -2t81 -2t76.5 -1.5t50.5 -0.5q75 0 138.5 2t123.5 4v-52l-86 -4q-21 -1 -35 -5.5t-23 -15.5t-14.5 -30.5t-9.5 -50.5q-1 -5 -2 -34t-2.5 -70.5t-2.5 -89.5t-1 -91v-300q0 -150 1 -236t3 -124q2 -30 7.5 -50t16 -31.5t26 -16.5t36.5 -6zM21 1520v9q6 5 26 14.5
t43.5 19t46 17.5t33.5 9l62 -106l-6 -11q-6 -2 -24 -11t-38.5 -20t-39 -22.5t-25.5 -18.5zM420 1520v9q6 5 26 14.5t44 19t46.5 17.5t33.5 9l61 -106l-6 -11q-5 -2 -23 -11t-38.5 -20t-39.5 -22.5t-26 -18.5z" />
    <glyph glyph-name="Eth" unicode="&#xd0;" horiz-adv-x="1511" 
d="M594 1262q108 0 210 -12.5t192.5 -41.5t166.5 -76t130.5 -115.5t85 -161t30.5 -212.5q0 -165 -52.5 -287t-151 -202.5t-240.5 -120t-322 -39.5q-45 0 -93 1t-93 2t-83 2t-61 1q-16 0 -56 -1t-85 -2l-111 -3v52l86 6q19 1 34.5 6t26 16t16.5 30.5t7 49.5q2 46 3.5 133.5
t1.5 226.5v65h-224l-2 22l23 55h203v158q0 43 -1 89.5t-2.5 87t-3 70t-2.5 38.5q-4 31 -11 50t-17.5 30t-25 15.5t-33.5 5.5l-93 5v52q23 -1 54 -2t64.5 -2t67 -1.5t62.5 -0.5q69 5 146.5 8t152.5 3zM412 514q0 -92 0.5 -153.5t1.5 -106.5t2 -80t2 -74q21 -5 52 -9t64 -7
t64.5 -5t54.5 -2q124 0 228 33.5t179.5 101.5t118 172t42.5 244q0 149 -45.5 254.5t-130 172.5t-206 98t-272.5 31h-29.5t-40 -0.5t-43.5 -1.5t-38 -2q-1 -31 -2 -67t-1.5 -80t-0.5 -98v-121v-158h374l7 -22l-25 -55h-356v-65z" />
    <glyph glyph-name="Ntilde" unicode="&#xd1;" horiz-adv-x="1673" 
d="M342 1042v-430q0 -77 0.5 -136t1.5 -111.5t2.5 -102.5t3.5 -108q1 -33 7.5 -53t18 -31t27 -15t35.5 -5l88 -4v-52q-20 0 -50 1t-62.5 2t-64 2t-54.5 1q-15 0 -46 -1t-65 -2t-64.5 -2t-43.5 -1v52l76 6q22 1 36.5 5t23.5 14.5t13 30t6 52.5q3 37 4.5 80t2 87t0.5 87v81
v255q0 38 -0.5 80.5t-1 84t-1.5 80.5t-2 69q-1 37 -11 63.5t-26.5 43.5t-38.5 25.5t-46 10.5l-60 4v52q18 0 45 -1t56.5 -2t58 -2t49.5 -1q9 0 24 0.5t30.5 1.5t30.5 2t24 2l977 -1007v376q0 34 -0.5 91.5t-2 124.5t-3 135t-3.5 122q-1 32 -7 51.5t-17.5 30.5t-27 15
t-36.5 5l-88 4v52q26 -1 57 -2l62 -2t60 -1.5t51 -0.5h21t31 0.5t36 1t38 1.5l95 3v-52l-72 -4q-44 -2 -63 -23t-21 -79q-2 -55 -3 -116t-2 -121t-1 -115.5v-99.5v-495q0 -40 1 -74t3 -72q-9 -2 -20.5 -4.5t-24 -5t-23.5 -5.5t-18 -6zM696 1507q-12 0 -30.5 -6.5t-40 -18
t-44 -26.5t-42.5 -32l-41 42q26 22 59 46t67.5 44.5t67.5 33.5t60 13q31 0 65.5 -15t69.5 -37t64 -37.5t52 -15.5q15 0 32.5 7.5t34.5 20t34 29t31 33.5l45 -33q-20 -27 -46.5 -54t-57 -49.5t-63.5 -36.5t-65 -14t-70.5 15.5t-70.5 37.5t-61.5 37.5t-49.5 15.5z" />
    <glyph glyph-name="Ograve" unicode="&#xd2;" horiz-adv-x="1606" 
d="M102 589q0 100 29.5 189.5t81.5 166t124 137.5t157 104t180 66t194 23q92 0 175 -22.5t153.5 -63t127 -97.5t96.5 -126.5t61.5 -149t21.5 -164.5q0 -100 -28.5 -187.5t-79.5 -161.5t-121.5 -132.5t-154.5 -99.5t-178 -62.5t-193 -21.5q-144 0 -262.5 47t-204 128.5
t-132.5 191t-47 235.5zM295 643q0 -110 27.5 -194.5t71.5 -147t99.5 -105t112.5 -68t109.5 -36.5t89.5 -11q38 0 91 7t110 26.5t112.5 54.5t99.5 92t71.5 138.5t27.5 193.5q0 96 -21.5 176t-59.5 144.5t-90 113.5t-111.5 81.5t-124.5 49t-130 16.5q-89 0 -176 -27.5
t-155.5 -90t-111 -164t-42.5 -249.5zM690 1613q45 -49 101.5 -110.5t131.5 -124.5v-17l-26 -23q-37 17 -85 40t-96.5 49t-92 52t-72.5 49l10 33q13 5 32 12t38.5 14t35.5 14t23 12z" />
    <glyph glyph-name="Oacute" unicode="&#xd3;" horiz-adv-x="1606" 
d="M102 589q0 100 29.5 189.5t81.5 166t124 137.5t157 104t180 66t194 23q92 0 175 -22.5t153.5 -63t127 -97.5t96.5 -126.5t61.5 -149t21.5 -164.5q0 -100 -28.5 -187.5t-79.5 -161.5t-121.5 -132.5t-154.5 -99.5t-178 -62.5t-193 -21.5q-144 0 -262.5 47t-204 128.5
t-132.5 191t-47 235.5zM295 643q0 -110 27.5 -194.5t71.5 -147t99.5 -105t112.5 -68t109.5 -36.5t89.5 -11q38 0 91 7t110 26.5t112.5 54.5t99.5 92t71.5 138.5t27.5 193.5q0 96 -21.5 176t-59.5 144.5t-90 113.5t-111.5 81.5t-124.5 49t-130 16.5q-89 0 -176 -27.5
t-155.5 -90t-111 -164t-42.5 -249.5zM946 1613q7 -5 23 -12t35.5 -14t38.5 -14t32 -12l10 -33q-29 -23 -72.5 -49t-92 -52t-96.5 -49t-85 -40l-26 23v17q75 63 131.5 124.5t101.5 110.5z" />
    <glyph glyph-name="Ocircumflex" unicode="&#xd4;" horiz-adv-x="1606" 
d="M102 589q0 100 29.5 189.5t81.5 166t124 137.5t157 104t180 66t194 23q92 0 175 -22.5t153.5 -63t127 -97.5t96.5 -126.5t61.5 -149t21.5 -164.5q0 -100 -28.5 -187.5t-79.5 -161.5t-121.5 -132.5t-154.5 -99.5t-178 -62.5t-193 -21.5q-144 0 -262.5 47t-204 128.5
t-132.5 191t-47 235.5zM295 643q0 -110 27.5 -194.5t71.5 -147t99.5 -105t112.5 -68t109.5 -36.5t89.5 -11q38 0 91 7t110 26.5t112.5 54.5t99.5 92t71.5 138.5t27.5 193.5q0 96 -21.5 176t-59.5 144.5t-90 113.5t-111.5 81.5t-124.5 49t-130 16.5q-89 0 -176 -27.5
t-155.5 -90t-111 -164t-42.5 -249.5zM834 1513q-23 -19 -52.5 -41.5t-61.5 -45t-64.5 -44t-61.5 -38.5l-37 13v15q28 28 56.5 59.5t54.5 62.5t47.5 59.5t36.5 50.5h164q18 -25 42 -54t50.5 -59.5t54 -61t53.5 -57.5v-15l-37 -13q-27 17 -59.5 38.5t-65.5 44t-64.5 45
t-55.5 41.5z" />
    <glyph glyph-name="Otilde" unicode="&#xd5;" horiz-adv-x="1606" 
d="M102 589q0 100 29.5 189.5t81.5 166t124 137.5t157 104t180 66t194 23q92 0 175 -22.5t153.5 -63t127 -97.5t96.5 -126.5t61.5 -149t21.5 -164.5q0 -100 -28.5 -187.5t-79.5 -161.5t-121.5 -132.5t-154.5 -99.5t-178 -62.5t-193 -21.5q-144 0 -262.5 47t-204 128.5
t-132.5 191t-47 235.5zM295 643q0 -110 27.5 -194.5t71.5 -147t99.5 -105t112.5 -68t109.5 -36.5t89.5 -11q38 0 91 7t110 26.5t112.5 54.5t99.5 92t71.5 138.5t27.5 193.5q0 96 -21.5 176t-59.5 144.5t-90 113.5t-111.5 81.5t-124.5 49t-130 16.5q-89 0 -176 -27.5
t-155.5 -90t-111 -164t-42.5 -249.5zM684 1509q-12 0 -30.5 -6.5t-40 -18t-44 -26.5t-42.5 -32l-41 42q26 22 59 46t67.5 44.5t67.5 33.5t60 13q31 0 65.5 -15t69.5 -37t64 -37.5t52 -15.5q15 0 32.5 7.5t34.5 20t34 29t31 33.5l45 -33q-20 -27 -46.5 -54t-57 -49.5
t-63.5 -36.5t-65 -14t-70.5 15.5t-70.5 37.5t-61.5 37.5t-49.5 15.5z" />
    <glyph glyph-name="Odieresis" unicode="&#xd6;" horiz-adv-x="1606" 
d="M102 589q0 100 29.5 189.5t81.5 166t124 137.5t157 104t180 66t194 23q92 0 175 -22.5t153.5 -63t127 -97.5t96.5 -126.5t61.5 -149t21.5 -164.5q0 -100 -28.5 -187.5t-79.5 -161.5t-121.5 -132.5t-154.5 -99.5t-178 -62.5t-193 -21.5q-144 0 -262.5 47t-204 128.5
t-132.5 191t-47 235.5zM295 643q0 -110 27.5 -194.5t71.5 -147t99.5 -105t112.5 -68t109.5 -36.5t89.5 -11q38 0 91 7t110 26.5t112.5 54.5t99.5 92t71.5 138.5t27.5 193.5q0 96 -21.5 176t-59.5 144.5t-90 113.5t-111.5 81.5t-124.5 49t-130 16.5q-89 0 -176 -27.5
t-155.5 -90t-111 -164t-42.5 -249.5zM510 1520v9q6 5 26 14.5t43.5 19t46 17.5t33.5 9l62 -106l-6 -11q-6 -2 -24 -11t-38.5 -20t-39 -22.5t-25.5 -18.5zM909 1520v9q6 5 26 14.5t44 19t46.5 17.5t33.5 9l61 -106l-6 -11q-5 -2 -23 -11t-38.5 -20t-39.5 -22.5t-26 -18.5z
" />
    <glyph glyph-name="multiply" unicode="&#xd7;" horiz-adv-x="1024" 
d="M903 920l-325 -328l331 -334l-65 -68l-334 334l-326 -325l-65 67l323 326l-331 332l65 67l334 -334l328 330z" />
    <glyph glyph-name="Oslash" unicode="&#xd8;" horiz-adv-x="1606" 
d="M102 589q0 100 29.5 189.5t81.5 166t124 137.5t157 104t180 66t194 23q106 0 198 -28t167 -82l168 189l78 -57l-170 -192q91 -85 142.5 -200.5t51.5 -252.5q0 -100 -28.5 -187.5t-79.5 -161.5t-121.5 -132.5t-154.5 -99.5t-178 -62.5t-193 -21.5q-204 0 -355 90
l-166 -187l-71 60l159 181q-103 84 -158 200t-55 258zM295 643q0 -132 37 -226t96 -159l698 785q-75 66 -165 98.5t-181 32.5q-89 0 -176 -27.5t-155.5 -90t-111 -164t-42.5 -249.5zM1317 593q0 121 -34 216t-91 167l-696 -783q41 -31 84 -52.5t83.5 -34.5t77 -19t64.5 -6
q38 0 91 7t110 26.5t112.5 54.5t99.5 92t71.5 138.5t27.5 193.5z" />
    <glyph glyph-name="Ugrave" unicode="&#xd9;" horiz-adv-x="1501" 
d="M1374 1199q-23 -1 -37.5 -5.5t-24 -18.5t-14 -41.5t-6.5 -73.5q-3 -78 -3.5 -157.5t-0.5 -151.5v-272q0 -120 -40.5 -213t-114 -156.5t-176 -96t-226.5 -32.5q-131 0 -228 31.5t-161.5 92t-96.5 148.5t-32 201v360q0 43 -0.5 91t-1.5 90.5t-2.5 74t-3.5 41.5q-3 26 -8 43
t-14 27t-23 14.5t-35 5.5l-70 4v52q22 0 57.5 -1t73 -2t70 -2t47.5 -1q74 0 131 2t115 4v-52l-68 -4q-42 -2 -61 -22.5t-23 -79.5q-1 -5 -2.5 -30.5t-2.5 -64t-2 -88t-1 -102.5v-342q0 -186 96 -282t303 -96q72 0 140.5 19.5t122.5 64.5t87 118.5t33 182.5v219
q0 65 -0.5 120.5t-1.5 104t-2.5 92t-3.5 84.5q-1 32 -7 52t-17 31t-27 15t-38 5l-91 3v52q22 0 53.5 -1t65.5 -2t66.5 -2t56.5 -1q16 0 48 1t66.5 2t65.5 2t45 1v-52zM655 1613q45 -49 101.5 -110.5t131.5 -124.5v-17l-26 -23q-37 17 -85 40t-96.5 49t-92 52t-72.5 49l10 33
q13 5 32 12t38.5 14t35.5 14t23 12z" />
    <glyph glyph-name="Uacute" unicode="&#xda;" horiz-adv-x="1501" 
d="M1374 1199q-23 -1 -37.5 -5.5t-24 -18.5t-14 -41.5t-6.5 -73.5q-3 -78 -3.5 -157.5t-0.5 -151.5v-272q0 -120 -40.5 -213t-114 -156.5t-176 -96t-226.5 -32.5q-131 0 -228 31.5t-161.5 92t-96.5 148.5t-32 201v360q0 43 -0.5 91t-1.5 90.5t-2.5 74t-3.5 41.5q-3 26 -8 43
t-14 27t-23 14.5t-35 5.5l-70 4v52q22 0 57.5 -1t73 -2t70 -2t47.5 -1q74 0 131 2t115 4v-52l-68 -4q-42 -2 -61 -22.5t-23 -79.5q-1 -5 -2.5 -30.5t-2.5 -64t-2 -88t-1 -102.5v-342q0 -186 96 -282t303 -96q72 0 140.5 19.5t122.5 64.5t87 118.5t33 182.5v219
q0 65 -0.5 120.5t-1.5 104t-2.5 92t-3.5 84.5q-1 32 -7 52t-17 31t-27 15t-38 5l-91 3v52q22 0 53.5 -1t65.5 -2t66.5 -2t56.5 -1q16 0 48 1t66.5 2t65.5 2t45 1v-52zM897 1613q7 -5 23 -12t35.5 -14t38.5 -14t32 -12l10 -33q-29 -23 -72.5 -49t-92 -52t-96.5 -49t-85 -40
l-26 23v17q75 63 131.5 124.5t101.5 110.5z" />
    <glyph glyph-name="Ucircumflex" unicode="&#xdb;" horiz-adv-x="1501" 
d="M1374 1199q-23 -1 -37.5 -5.5t-24 -18.5t-14 -41.5t-6.5 -73.5q-3 -78 -3.5 -157.5t-0.5 -151.5v-272q0 -120 -40.5 -213t-114 -156.5t-176 -96t-226.5 -32.5q-131 0 -228 31.5t-161.5 92t-96.5 148.5t-32 201v360q0 43 -0.5 91t-1.5 90.5t-2.5 74t-3.5 41.5q-3 26 -8 43
t-14 27t-23 14.5t-35 5.5l-70 4v52q22 0 57.5 -1t73 -2t70 -2t47.5 -1q74 0 131 2t115 4v-52l-68 -4q-42 -2 -61 -22.5t-23 -79.5q-1 -5 -2.5 -30.5t-2.5 -64t-2 -88t-1 -102.5v-342q0 -186 96 -282t303 -96q72 0 140.5 19.5t122.5 64.5t87 118.5t33 182.5v219
q0 65 -0.5 120.5t-1.5 104t-2.5 92t-3.5 84.5q-1 32 -7 52t-17 31t-27 15t-38 5l-91 3v52q22 0 53.5 -1t65.5 -2t66.5 -2t56.5 -1q16 0 48 1t66.5 2t65.5 2t45 1v-52zM777 1513q-23 -19 -52.5 -41.5t-61.5 -45t-64.5 -44t-61.5 -38.5l-37 13v15q28 28 56.5 59.5t54.5 62.5
t47.5 59.5t36.5 50.5h164q18 -25 42 -54t50.5 -59.5t54 -61t53.5 -57.5v-15l-37 -13q-27 17 -59.5 38.5t-65.5 44t-64.5 45t-55.5 41.5z" />
    <glyph glyph-name="Udieresis" unicode="&#xdc;" horiz-adv-x="1501" 
d="M1374 1199q-23 -1 -37.5 -5.5t-24 -18.5t-14 -41.5t-6.5 -73.5q-3 -78 -3.5 -157.5t-0.5 -151.5v-272q0 -120 -40.5 -213t-114 -156.5t-176 -96t-226.5 -32.5q-131 0 -228 31.5t-161.5 92t-96.5 148.5t-32 201v360q0 43 -0.5 91t-1.5 90.5t-2.5 74t-3.5 41.5q-3 26 -8 43
t-14 27t-23 14.5t-35 5.5l-70 4v52q22 0 57.5 -1t73 -2t70 -2t47.5 -1q74 0 131 2t115 4v-52l-68 -4q-42 -2 -61 -22.5t-23 -79.5q-1 -5 -2.5 -30.5t-2.5 -64t-2 -88t-1 -102.5v-342q0 -186 96 -282t303 -96q72 0 140.5 19.5t122.5 64.5t87 118.5t33 182.5v219
q0 65 -0.5 120.5t-1.5 104t-2.5 92t-3.5 84.5q-1 32 -7 52t-17 31t-27 15t-38 5l-91 3v52q22 0 53.5 -1t65.5 -2t66.5 -2t56.5 -1q16 0 48 1t66.5 2t65.5 2t45 1v-52zM457 1520v9q6 5 26 14.5t43.5 19t46 17.5t33.5 9l62 -106l-6 -11q-6 -2 -24 -11t-38.5 -20t-39 -22.5
t-25.5 -18.5zM856 1520v9q6 5 26 14.5t44 19t46.5 17.5t33.5 9l61 -106l-6 -11q-5 -2 -23 -11t-38.5 -20t-39.5 -22.5t-26 -18.5z" />
    <glyph glyph-name="Yacute" unicode="&#xdd;" horiz-adv-x="1284" 
d="M647 0q-9 0 -25 -0.5t-36 -1t-42.5 -1t-44.5 -0.5l-112 -3v52l94 6q22 1 37.5 5t25 14.5t14.5 30t7 52.5q1 25 2 51.5t2 63.5t1.5 89t0.5 127q-22 40 -40 71t-33.5 56.5t-30 48t-31 47t-36 53t-44.5 65.5q-7 9 -22 30.5t-34 49.5t-39.5 58.5t-38.5 57t-31 46l-17 25.5
q-21 29 -36.5 48t-29.5 30.5t-29 17.5t-36 9l-43 7v52l89 -3q36 -2 73.5 -2.5t60.5 -0.5q15 0 47.5 1t72 2t81 2t74.5 1v-52l-60 -4q-43 -2 -59.5 -12.5t-16.5 -35.5q0 -17 8 -38t17 -35q19 -31 43.5 -68t51.5 -77.5t54.5 -82.5t53.5 -84q13 -21 31 -48.5t35 -53.5
q10 -15 19.5 -30t20.5 -30q18 26 35.5 53t34.5 53q15 22 31 46.5t31.5 49.5t30 49.5t26.5 45.5q11 18 24.5 40.5t27 44.5t25.5 42t19 32q9 18 18 42.5t9 39.5q0 34 -22 44t-67 13l-57 4v52l100 -3q20 -1 41 -1.5t40.5 -1t36 -0.5h28.5q15 0 44.5 0.5t58.5 2.5l73 3v-52
l-43 -4q-23 -2 -41 -14t-35 -32q-27 -35 -65 -89.5t-80 -118t-84.5 -131t-80 -128t-66 -109t-41.5 -74.5v-351q0 -59 22.5 -79t68.5 -22l89 -7v-52q-22 0 -59 1t-78.5 2t-80 2t-63.5 1zM790 1613q7 -5 23 -12t35.5 -14t38.5 -14t32 -12l10 -33q-29 -23 -72.5 -49t-92 -52
t-96.5 -49t-85 -40l-26 23v17q75 63 131.5 124.5t101.5 110.5z" />
    <glyph glyph-name="Thorn" unicode="&#xde;" horiz-adv-x="1128" 
d="M598 1026q123 0 210 -21.5t142.5 -62t81 -99t25.5 -132.5q0 -120 -49.5 -203.5t-131.5 -135t-188 -75t-219 -23.5q-3 8 -10 22.5t-10 17.5l4 15q130 10 210 46t123 84.5t57.5 104.5t14.5 106q0 136 -81.5 212.5t-241.5 76.5h-22.5t-31 -0.5t-34 -1.5t-31.5 -2
q-1 -28 -2 -61t-1.5 -66.5t-0.5 -66.5v-61v-186q0 -150 1 -236t3 -124q2 -30 7 -50.5t14.5 -33.5t25.5 -18.5t39 -5.5h106v-52l-120 3q-24 0 -49 0.5t-48.5 1t-43 1t-32.5 0.5q-17 0 -58 -1t-85 -2l-111 -3v52h86q40 0 62 24t24 84q2 43 3.5 132t1.5 228v364q0 34 -1 71
t-2.5 68.5t-3 54t-2.5 27.5q-4 31 -9.5 50.5t-15 30.5t-24 15.5t-35.5 5.5l-77 4v52q24 -1 62 -2t77 -2t72.5 -1.5t48.5 -0.5q75 0 138.5 2t123.5 4v-52l-86 -4q-21 -1 -35 -6t-23.5 -16t-15 -30.5t-8.5 -49.5q0 -2 -0.5 -11t-1.5 -20.5t-1.5 -24t-0.5 -21.5q21 1 39.5 2
t39 1.5t45 0.5h56.5z" />
    <glyph glyph-name="germandbls" unicode="&#xdf;" horiz-adv-x="1169" 
d="M354 252q0 -54 2.5 -95t6 -70t6 -47.5t2.5 -28.5l-17 -13q-20 0 -33 0.5t-26 0.5t-29 0.5t-42 0.5q-11 0 -33 -1t-46.5 -2t-47 -2t-34.5 -1v52h54q21 0 33.5 5t19 17t9 33t3.5 53q1 30 2 65.5t1.5 81.5t0.5 103.5v132.5v348q0 116 39 207t105.5 153.5t155 95.5t188.5 33
q60 0 112.5 -17t92 -49t62 -78t22.5 -104q0 -57 -20.5 -94.5t-51.5 -64.5t-66.5 -47.5t-66.5 -43.5t-51.5 -52.5t-20.5 -74.5q0 -34 14.5 -60t38.5 -47.5t56.5 -40t68.5 -37.5q49 -26 90.5 -52t71.5 -58t47 -73.5t17 -97.5q0 -86 -31.5 -143.5t-80.5 -93t-108.5 -50.5
t-115.5 -15q-82 0 -152.5 14.5t-112.5 39.5q-2 22 -4 48.5t-4 52.5t-3.5 49.5t-2.5 40.5l53 9q23 -51 50 -85.5t59 -55.5t69 -30t80 -9q34 0 63 12t50 33.5t33 51.5t12 67q0 61 -30 104t-75.5 76.5t-98 63t-98 64t-75.5 77.5t-30 105q0 41 13.5 72t35 56t50 45t58.5 40
q57 38 82 75t25 85t-15 84.5t-42 62t-64 38.5t-80 13q-33 0 -76 -12.5t-80.5 -49.5t-63.5 -105.5t-26 -180.5v-680z" />
    <glyph glyph-name="agrave" unicode="&#xe0;" horiz-adv-x="932" 
d="M739 -19q-38 0 -65 10t-44.5 26.5t-27.5 37.5t-14 43q-26 -23 -55.5 -45.5t-64.5 -40.5t-75.5 -29.5t-87.5 -11.5q-107 0 -161 57.5t-54 150.5q0 55 19.5 94t53 67t78.5 46.5t95 32.5q31 9 65.5 17t66.5 15.5t59 14.5t44 13v70q0 40 -7.5 72.5t-28 56t-56 36t-90.5 12.5
q-45 0 -97.5 -14t-98.5 -29l-17 6l-14 52q35 14 77 29t83.5 27.5t80.5 20.5t68 8q38 0 85 -8t87.5 -35.5t68 -80t27.5 -142.5v-331q0 -42 8 -72.5t21 -50t29 -29t32 -9.5q35 0 82 28l27 -50q-11 -7 -30 -18t-44.5 -21.5t-57 -18t-67.5 -7.5zM578 173q-2 24 -3.5 57.5
t-2 68.5t-1 66t-0.5 49q-34 -14 -78 -23.5t-83 -21.5q-39 -13 -65.5 -28.5t-43 -35.5t-24 -45t-7.5 -58q0 -66 29 -97.5t74 -31.5q25 0 51.5 8t52.5 21.5t52 32t49 38.5zM412 1253q29 -54 75.5 -125.5t106.5 -143.5v-18l-37 -17q-33 22 -75.5 52.5t-85 64t-80.5 66.5t-62 60
l18 33q13 2 32.5 5.5t40 7t38.5 7.5t29 8z" />
    <glyph glyph-name="aacute" unicode="&#xe1;" horiz-adv-x="932" 
d="M739 -19q-38 0 -65 10t-44.5 26.5t-27.5 37.5t-14 43q-26 -23 -55.5 -45.5t-64.5 -40.5t-75.5 -29.5t-87.5 -11.5q-107 0 -161 57.5t-54 150.5q0 55 19.5 94t53 67t78.5 46.5t95 32.5q31 9 65.5 17t66.5 15.5t59 14.5t44 13v70q0 40 -7.5 72.5t-28 56t-56 36t-90.5 12.5
q-45 0 -97.5 -14t-98.5 -29l-17 6l-14 52q35 14 77 29t83.5 27.5t80.5 20.5t68 8q38 0 85 -8t87.5 -35.5t68 -80t27.5 -142.5v-331q0 -42 8 -72.5t21 -50t29 -29t32 -9.5q35 0 82 28l27 -50q-11 -7 -30 -18t-44.5 -21.5t-57 -18t-67.5 -7.5zM578 173q-2 24 -3.5 57.5
t-2 68.5t-1 66t-0.5 49q-34 -14 -78 -23.5t-83 -21.5q-39 -13 -65.5 -28.5t-43 -35.5t-24 -45t-7.5 -58q0 -66 29 -97.5t74 -31.5q25 0 51.5 8t52.5 21.5t52 32t49 38.5zM537 1253q10 -4 28 -8.5t38 -8t39.5 -6.5t33.5 -5l18 -33q-24 -27 -63 -60t-82 -66.5t-85 -64
t-73 -52.5l-37 17v18q60 72 106 143.5t77 125.5z" />
    <glyph glyph-name="acircumflex" unicode="&#xe2;" horiz-adv-x="932" 
d="M739 -19q-38 0 -65 10t-44.5 26.5t-27.5 37.5t-14 43q-26 -23 -55.5 -45.5t-64.5 -40.5t-75.5 -29.5t-87.5 -11.5q-107 0 -161 57.5t-54 150.5q0 55 19.5 94t53 67t78.5 46.5t95 32.5q31 9 65.5 17t66.5 15.5t59 14.5t44 13v70q0 40 -7.5 72.5t-28 56t-56 36t-90.5 12.5
q-45 0 -97.5 -14t-98.5 -29l-17 6l-14 52q35 14 77 29t83.5 27.5t80.5 20.5t68 8q38 0 85 -8t87.5 -35.5t68 -80t27.5 -142.5v-331q0 -42 8 -72.5t21 -50t29 -29t32 -9.5q35 0 82 28l27 -50q-11 -7 -30 -18t-44.5 -21.5t-57 -18t-67.5 -7.5zM578 173q-2 24 -3.5 57.5
t-2 68.5t-1 66t-0.5 49q-34 -14 -78 -23.5t-83 -21.5q-39 -13 -65.5 -28.5t-43 -35.5t-24 -45t-7.5 -58q0 -66 29 -97.5t74 -31.5q25 0 51.5 8t52.5 21.5t52 32t49 38.5zM454 1146q-23 -21 -52.5 -46.5t-61 -51.5t-64 -50.5t-61.5 -44.5l-37 15v18q28 33 56 69t54 71t48 67
t37 58h163q19 -28 43 -61t50.5 -67.5t54 -69.5t53.5 -67v-18l-37 -15q-27 20 -59.5 44.5t-65.5 50t-64.5 51t-56.5 47.5z" />
    <glyph glyph-name="atilde" unicode="&#xe3;" horiz-adv-x="932" 
d="M739 -19q-38 0 -65 10t-44.5 26.5t-27.5 37.5t-14 43q-26 -23 -55.5 -45.5t-64.5 -40.5t-75.5 -29.5t-87.5 -11.5q-107 0 -161 57.5t-54 150.5q0 55 19.5 94t53 67t78.5 46.5t95 32.5q31 9 65.5 17t66.5 15.5t59 14.5t44 13v70q0 40 -7.5 72.5t-28 56t-56 36t-90.5 12.5
q-45 0 -97.5 -14t-98.5 -29l-17 6l-14 52q35 14 77 29t83.5 27.5t80.5 20.5t68 8q38 0 85 -8t87.5 -35.5t68 -80t27.5 -142.5v-331q0 -42 8 -72.5t21 -50t29 -29t32 -9.5q35 0 82 28l27 -50q-11 -7 -30 -18t-44.5 -21.5t-57 -18t-67.5 -7.5zM578 173q-2 24 -3.5 57.5
t-2 68.5t-1 66t-0.5 49q-34 -14 -78 -23.5t-83 -21.5q-39 -13 -65.5 -28.5t-43 -35.5t-24 -45t-7.5 -58q0 -66 29 -97.5t74 -31.5q25 0 51.5 8t52.5 21.5t52 32t49 38.5zM346 1069q-12 0 -30.5 -6.5t-40 -18t-44 -26.5t-42.5 -32l-41 42q26 22 59 46t67.5 44.5t67.5 33.5
t60 13q31 0 65.5 -15t69.5 -37t64 -37.5t52 -15.5q15 0 32.5 7.5t34.5 20t34 29t31 33.5l45 -33q-20 -27 -46.5 -54t-57 -49.5t-63.5 -36.5t-65 -14t-70.5 15.5t-70.5 37.5t-61.5 37.5t-49.5 15.5z" />
    <glyph glyph-name="adieresis" unicode="&#xe4;" horiz-adv-x="932" 
d="M739 -19q-38 0 -65 10t-44.5 26.5t-27.5 37.5t-14 43q-26 -23 -55.5 -45.5t-64.5 -40.5t-75.5 -29.5t-87.5 -11.5q-107 0 -161 57.5t-54 150.5q0 55 19.5 94t53 67t78.5 46.5t95 32.5q31 9 65.5 17t66.5 15.5t59 14.5t44 13v70q0 40 -7.5 72.5t-28 56t-56 36t-90.5 12.5
q-45 0 -97.5 -14t-98.5 -29l-17 6l-14 52q35 14 77 29t83.5 27.5t80.5 20.5t68 8q38 0 85 -8t87.5 -35.5t68 -80t27.5 -142.5v-331q0 -42 8 -72.5t21 -50t29 -29t32 -9.5q35 0 82 28l27 -50q-11 -7 -30 -18t-44.5 -21.5t-57 -18t-67.5 -7.5zM578 173q-2 24 -3.5 57.5
t-2 68.5t-1 66t-0.5 49q-34 -14 -78 -23.5t-83 -21.5q-39 -13 -65.5 -28.5t-43 -35.5t-24 -45t-7.5 -58q0 -66 29 -97.5t74 -31.5q25 0 51.5 8t52.5 21.5t52 32t49 38.5zM156 1086v9q6 5 26 14.5t43.5 19t46 17.5t33.5 9l62 -106l-6 -11q-6 -2 -24 -11t-38.5 -20t-39 -22.5
t-25.5 -18.5zM555 1086v9q6 5 26 14.5t44 19t46.5 17.5t33.5 9l61 -106l-6 -11q-5 -2 -23 -11t-38.5 -20t-39.5 -22.5t-26 -18.5z" />
    <glyph glyph-name="aring" unicode="&#xe5;" horiz-adv-x="932" 
d="M739 -19q-38 0 -65 10t-44.5 26.5t-27.5 37.5t-14 43q-26 -23 -55.5 -45.5t-64.5 -40.5t-75.5 -29.5t-87.5 -11.5q-107 0 -161 57.5t-54 150.5q0 55 19.5 94t53 67t78.5 46.5t95 32.5q31 9 65.5 17t66.5 15.5t59 14.5t44 13v70q0 40 -7.5 72.5t-28 56t-56 36t-90.5 12.5
q-45 0 -97.5 -14t-98.5 -29l-17 6l-14 52q35 14 77 29t83.5 27.5t80.5 20.5t68 8q38 0 85 -8t87.5 -35.5t68 -80t27.5 -142.5v-331q0 -42 8 -72.5t21 -50t29 -29t32 -9.5q35 0 82 28l27 -50q-11 -7 -30 -18t-44.5 -21.5t-57 -18t-67.5 -7.5zM578 173q-2 24 -3.5 57.5
t-2 68.5t-1 66t-0.5 49q-34 -14 -78 -23.5t-83 -21.5q-39 -13 -65.5 -28.5t-43 -35.5t-24 -45t-7.5 -58q0 -66 29 -97.5t74 -31.5q25 0 51.5 8t52.5 21.5t52 32t49 38.5zM649 1115q0 -73 -48 -119.5t-144 -46.5q-94 0 -142.5 46.5t-48.5 119.5q0 35 12.5 64.5t36.5 51.5
t59.5 34t82.5 12q48 0 84 -12t60 -33.5t36 -51.5t12 -65zM561 1115q0 45 -29 71.5t-75 26.5q-48 0 -75.5 -26.5t-27.5 -71.5q0 -48 27.5 -75.5t75.5 -27.5q46 0 75 27.5t29 75.5z" />
    <glyph glyph-name="ae" unicode="&#xe6;" horiz-adv-x="1378" 
d="M1143 460q-40 0 -84 1t-86 3q-57 2 -109.5 3t-101.5 1q-2 -12 -3 -32.5t-1 -31.5q0 -55 13 -111.5t43 -102.5t79 -75t121 -29q27 0 51.5 5.5t47 14.5t42.5 20t37 21l65 38l35 -51l-67 -49q-27 -20 -61 -40t-74 -36.5t-84.5 -27t-90.5 -10.5q-78 0 -152 39.5t-128 123.5
q-34 -32 -72.5 -61.5t-80.5 -52t-86.5 -36t-90.5 -13.5q-107 0 -161 57.5t-54 150.5q0 55 19 94.5t52 67.5t78 46.5t97 31.5q27 7 60 15l66 16t62 15.5t47 13.5v70q0 40 -7.5 72.5t-28 56t-56 36t-90.5 12.5q-45 0 -97.5 -14t-98.5 -29l-17 6l-14 52q35 14 77 29t83.5 27.5
t80.5 20.5t68 8q28 0 62.5 -4t68 -17.5t63 -38.5t48.5 -66q128 126 315 126q59 0 110 -22.5t88.5 -63.5t59 -97.5t21.5 -124.5zM373 73q24 0 53.5 9.5t60 26t61 37.5t56.5 45q-15 39 -24 84.5t-9 99.5v37l-63 -17q-26 -7 -53 -14t-45 -12q-77 -20 -108.5 -60.5t-31.5 -106.5
t29 -97.5t74 -31.5zM965 747q-26 0 -56.5 -15t-58 -43.5t-49.5 -69t-31 -91.5h338q-2 51 -15 92t-33 69t-45 43t-50 15z" />
    <glyph glyph-name="ccedilla" unicode="&#xe7;" horiz-adv-x="915" 
d="M498 745q-38 0 -78.5 -19.5t-74.5 -60.5t-55.5 -106t-21.5 -155q0 -68 17 -125.5t52.5 -100t89 -66.5t126.5 -24q69 0 115 18t80 41l69 48l37 -46l-79 -62q-72 -57 -151.5 -86.5t-170.5 -29.5q-69 0 -135.5 24.5t-119 74.5t-84.5 125.5t-32 177.5t40 185.5t107.5 143
t155.5 92t184 32.5q34 0 69.5 -4.5t69 -12t63 -17.5t52.5 -22v-10q-5 -9 -12.5 -26.5t-15.5 -37t-14.5 -38t-10.5 -30.5h-29q-23 21 -50.5 42t-58.5 37.5t-65 27t-69 10.5zM399 -441q-21 0 -41 4t-38 10.5t-32.5 14.5t-23.5 15q5 9 12 21.5t13.5 26.5t12.5 28t9 25h21
q21 -31 50.5 -47.5t74.5 -16.5q13 0 25.5 5.5t21.5 13.5t14.5 18t5.5 18q0 23 -23.5 42.5t-52.5 38.5q-35 23 -56 46.5t-21 48.5q0 16 16.5 38.5t41 44.5t52 40.5t49.5 27.5l41 -11l4 -7q-15 -6 -29.5 -18.5t-26 -27.5t-19 -29t-7.5 -23q0 -6 6 -13t15.5 -13.5t20.5 -13.5
t20 -13q16 -10 31 -21.5t27 -25t19 -29t7 -31.5q0 -27 -20.5 -60t-54 -61t-77 -47t-88.5 -19z" />
    <glyph glyph-name="egrave" unicode="&#xe8;" horiz-adv-x="930" 
d="M682 460q-24 0 -54 0.5t-63.5 1t-68 1.5t-67.5 2l-158 3l-2 -22q-1 -10 -1 -21v-21q0 -55 14 -111.5t46 -102.5t85.5 -75t131.5 -29q60 0 110.5 19.5t87.5 41.5l66 38l35 -51l-74 -49q-29 -20 -65.5 -40t-78.5 -36.5t-89 -27t-97 -10.5q-64 0 -128 25t-115 75.5t-83 126
t-32 177.5q0 106 40 190t108 142t156.5 88.5t186.5 30.5q58 0 109.5 -22t90.5 -62t62 -97t23 -127zM500 747q-30 0 -64.5 -15t-65.5 -43.5t-55 -69t-34 -91.5h378q-2 51 -16.5 92t-37 69t-50 43t-55.5 15zM418 1253q29 -54 75.5 -125.5t106.5 -143.5v-18l-37 -17
q-33 22 -75.5 52.5t-85 64t-80.5 66.5t-62 60l18 33q13 2 32.5 5.5t40 7t38.5 7.5t29 8z" />
    <glyph glyph-name="eacute" unicode="&#xe9;" horiz-adv-x="930" 
d="M682 460q-24 0 -54 0.5t-63.5 1t-68 1.5t-67.5 2l-158 3l-2 -22q-1 -10 -1 -21v-21q0 -55 14 -111.5t46 -102.5t85.5 -75t131.5 -29q60 0 110.5 19.5t87.5 41.5l66 38l35 -51l-74 -49q-29 -20 -65.5 -40t-78.5 -36.5t-89 -27t-97 -10.5q-64 0 -128 25t-115 75.5t-83 126
t-32 177.5q0 106 40 190t108 142t156.5 88.5t186.5 30.5q58 0 109.5 -22t90.5 -62t62 -97t23 -127zM500 747q-30 0 -64.5 -15t-65.5 -43.5t-55 -69t-34 -91.5h378q-2 51 -16.5 92t-37 69t-50 43t-55.5 15zM611 1253q10 -4 28 -8.5t38 -8t39.5 -6.5t33.5 -5l18 -33
q-24 -27 -63 -60t-82 -66.5t-85 -64t-73 -52.5l-37 17v18q60 72 106 143.5t77 125.5z" />
    <glyph glyph-name="ecircumflex" unicode="&#xea;" horiz-adv-x="930" 
d="M682 460q-24 0 -54 0.5t-63.5 1t-68 1.5t-67.5 2l-158 3l-2 -22q-1 -10 -1 -21v-21q0 -55 14 -111.5t46 -102.5t85.5 -75t131.5 -29q60 0 110.5 19.5t87.5 41.5l66 38l35 -51l-74 -49q-29 -20 -65.5 -40t-78.5 -36.5t-89 -27t-97 -10.5q-64 0 -128 25t-115 75.5t-83 126
t-32 177.5q0 106 40 190t108 142t156.5 88.5t186.5 30.5q58 0 109.5 -22t90.5 -62t62 -97t23 -127zM500 747q-30 0 -64.5 -15t-65.5 -43.5t-55 -69t-34 -91.5h378q-2 51 -16.5 92t-37 69t-50 43t-55.5 15zM501 1146q-23 -21 -52.5 -46.5t-61 -51.5t-64 -50.5t-61.5 -44.5
l-37 15v18q28 33 56 69t54 71t48 67t37 58h163q19 -28 43 -61t50.5 -67.5t54 -69.5t53.5 -67v-18l-37 -15q-27 20 -59.5 44.5t-65.5 50t-64.5 51t-56.5 47.5z" />
    <glyph glyph-name="edieresis" unicode="&#xeb;" horiz-adv-x="930" 
d="M682 460q-24 0 -54 0.5t-63.5 1t-68 1.5t-67.5 2l-158 3l-2 -22q-1 -10 -1 -21v-21q0 -55 14 -111.5t46 -102.5t85.5 -75t131.5 -29q60 0 110.5 19.5t87.5 41.5l66 38l35 -51l-74 -49q-29 -20 -65.5 -40t-78.5 -36.5t-89 -27t-97 -10.5q-64 0 -128 25t-115 75.5t-83 126
t-32 177.5q0 106 40 190t108 142t156.5 88.5t186.5 30.5q58 0 109.5 -22t90.5 -62t62 -97t23 -127zM500 747q-30 0 -64.5 -15t-65.5 -43.5t-55 -69t-34 -91.5h378q-2 51 -16.5 92t-37 69t-50 43t-55.5 15zM191 1086v9q6 5 26 14.5t43.5 19t46 17.5t33.5 9l62 -106l-6 -11
q-6 -2 -24 -11t-38.5 -20t-39 -22.5t-25.5 -18.5zM590 1086v9q6 5 26 14.5t44 19t46.5 17.5t33.5 9l61 -106l-6 -11q-5 -2 -23 -11t-38.5 -20t-39.5 -22.5t-26 -18.5z" />
    <glyph glyph-name="igrave" unicode="&#xec;" horiz-adv-x="571" 
d="M373 351v-44t0.5 -56t1.5 -55.5t2 -41.5q3 -36 7.5 -56.5t13.5 -31t24 -13.5t39 -5l35 -2v-52q-45 0 -104.5 3t-119.5 3q-10 0 -38 -1t-61 -2t-62.5 -2t-42.5 -1v52l69 6q16 1 27.5 5t19 14.5t11 30t4.5 52.5q0 14 0.5 46.5t1.5 70t1.5 73t0.5 56.5v103q0 75 -3.5 117
t-14 64t-30.5 31t-53 18l7 41q26 3 60 10t67.5 16t61.5 17.5t42 14.5l39 -18l-3 -134q-2 -63 -2.5 -146.5t-0.5 -182.5zM181 1253q29 -54 75.5 -125.5t106.5 -143.5v-18l-37 -17q-33 22 -75.5 52.5t-85 64t-80.5 66.5t-62 60l18 33q13 2 32.5 5.5t40 7t38.5 7.5t29 8z" />
    <glyph glyph-name="iacute" unicode="&#xed;" horiz-adv-x="571" 
d="M373 351v-44t0.5 -56t1.5 -55.5t2 -41.5q3 -36 7.5 -56.5t13.5 -31t24 -13.5t39 -5l35 -2v-52q-45 0 -104.5 3t-119.5 3q-10 0 -38 -1t-61 -2t-62.5 -2t-42.5 -1v52l69 6q16 1 27.5 5t19 14.5t11 30t4.5 52.5q0 14 0.5 46.5t1.5 70t1.5 73t0.5 56.5v103q0 75 -3.5 117
t-14 64t-30.5 31t-53 18l7 41q26 3 60 10t67.5 16t61.5 17.5t42 14.5l39 -18l-3 -134q-2 -63 -2.5 -146.5t-0.5 -182.5zM344 1253q10 -4 28 -8.5t38 -8t39.5 -6.5t33.5 -5l18 -33q-24 -27 -63 -60t-82 -66.5t-85 -64t-73 -52.5l-37 17v18q60 72 106 143.5t77 125.5z" />
    <glyph glyph-name="icircumflex" unicode="&#xee;" 
d="M373 351v-44t0.5 -56t1.5 -55.5t2 -41.5q3 -36 7.5 -56.5t13.5 -31t24 -13.5t39 -5l35 -2v-52q-45 0 -104.5 3t-119.5 3q-10 0 -38 -1t-61 -2t-62.5 -2t-42.5 -1v52l69 6q16 1 27.5 5t19 14.5t11 30t4.5 52.5q0 14 0.5 46.5t1.5 70t1.5 73t0.5 56.5v103q0 75 -3.5 117
t-14 64t-30.5 31t-53 18l7 41q26 3 60 10t67.5 16t61.5 17.5t42 14.5l39 -18l-3 -134q-2 -63 -2.5 -146.5t-0.5 -182.5zM266 1146q-23 -21 -52.5 -46.5t-61 -51.5t-64 -50.5t-61.5 -44.5l-37 15v18q28 33 56 69t54 71t48 67t37 58h163q19 -28 43 -61t50.5 -67.5t54 -69.5
t53.5 -67v-18l-37 -15q-27 20 -59.5 44.5t-65.5 50t-64.5 51t-56.5 47.5z" />
    <glyph glyph-name="idieresis" unicode="&#xef;" 
d="M373 351v-44t0.5 -56t1.5 -55.5t2 -41.5q3 -36 7.5 -56.5t13.5 -31t24 -13.5t39 -5l35 -2v-52q-45 0 -104.5 3t-119.5 3q-10 0 -38 -1t-61 -2t-62.5 -2t-42.5 -1v52l69 6q16 1 27.5 5t19 14.5t11 30t4.5 52.5q0 14 0.5 46.5t1.5 70t1.5 73t0.5 56.5v103q0 75 -3.5 117
t-14 64t-30.5 31t-53 18l7 41q26 3 60 10t67.5 16t61.5 17.5t42 14.5l39 -18l-3 -134q-2 -63 -2.5 -146.5t-0.5 -182.5zM-20 1086v9q6 5 26 14.5t43.5 19t46 17.5t33.5 9l62 -106l-6 -11q-6 -2 -24 -11t-38.5 -20t-39 -22.5t-25.5 -18.5zM379 1086v9q6 5 26 14.5t44 19
t46.5 17.5t33.5 9l61 -106l-6 -11q-5 -2 -23 -11t-38.5 -20t-39.5 -22.5t-26 -18.5z" />
    <glyph glyph-name="eth" unicode="&#xf0;" horiz-adv-x="1081" 
d="M557 822q49 0 109 -6.5t114 -20.5q-26 100 -72 184t-106 147l-235 -127l-21 13l-10 59l201 107q-48 32 -101.5 49.5t-113.5 17.5q-28 0 -54.5 -1t-54.5 -6l-14 42q26 10 54.5 23t55.5 26.5l50 25t38 17.5q73 -5 149 -34.5t136 -80.5l209 115l20 -13l9 -58l-181 -98
q56 -58 100 -129t74 -151.5t46 -168.5t16 -181q0 -127 -33.5 -237t-97 -191.5t-156.5 -128.5t-211 -47q-92 0 -164.5 27t-123 77t-77 120.5t-26.5 157.5q0 106 40 192.5t105.5 148.5t150.5 96t175 34zM819 489q0 49 -3 89t-11 87q-60 35 -132.5 57t-144.5 22
q-37 0 -81.5 -16t-83.5 -55t-65 -105t-26 -166q0 -86 21.5 -149.5t60 -105.5t90.5 -62.5t113 -20.5q52 0 99.5 30t83.5 85t57.5 133.5t21.5 176.5z" />
    <glyph glyph-name="ntilde" unicode="&#xf1;" horiz-adv-x="1149" 
d="M498 46v-52q-57 0 -109 3t-115 3q-10 0 -34 -1t-51.5 -2t-53 -2t-37.5 -1v52l39 4q17 2 29 6.5t19.5 16t11 30.5t4.5 51q0 14 0.5 46.5t1.5 70t1.5 73t0.5 56.5v103q0 73 -4 114.5t-14 63t-25.5 30t-37.5 15.5q-3 1 -9.5 2.5t-12.5 2.5l-16 2l6 41q25 3 62 10t73.5 16
t67.5 17.5t45 14.5l33 -14v-90l37 17q69 32 141 56.5t141 24.5q39 0 86 -11.5t87.5 -42t68 -85t27.5 -140.5v-156q0 -29 0.5 -65t1.5 -70.5t1.5 -63t0.5 -42.5q1 -31 3 -50t10 -30t24.5 -15.5t46.5 -6.5l34 -2v-52q-53 0 -100.5 3t-105.5 3q-69 0 -120 -3t-89 -3v52
q34 2 56 5.5t35 14t19 31t8 57.5q1 14 2 40t1.5 55.5t1 57t0.5 44.5v196q0 45 -15 77t-43 52t-68 29t-90 9q-29 0 -60 -6.5t-59 -15t-49.5 -17t-31.5 -12.5v-312v-44.5t0.5 -57t1.5 -55.5t2 -40q2 -33 6.5 -52.5t14 -30.5t24 -15t37.5 -6zM440 1069q-12 0 -30.5 -6.5
t-40 -18t-44 -26.5t-42.5 -32l-41 42q26 22 59 46t67.5 44.5t67.5 33.5t60 13q31 0 65.5 -15t69.5 -37t64 -37.5t52 -15.5q15 0 32.5 7.5t34.5 20t34 29t31 33.5l45 -33q-20 -27 -46.5 -54t-57 -49.5t-63.5 -36.5t-65 -14t-70.5 15.5t-70.5 37.5t-61.5 37.5t-49.5 15.5z" />
    <glyph glyph-name="ograve" unicode="&#xf2;" horiz-adv-x="1137" 
d="M604 826q98 0 180 -29t141.5 -83t92.5 -130.5t33 -171.5q0 -89 -36.5 -169.5t-103.5 -141t-162 -96.5t-212 -36q-109 0 -193 34t-141.5 91t-87 131.5t-29.5 156.5q0 105 41 187.5t111.5 139.5t164.5 87t201 30zM281 439q0 -91 25 -163.5t69.5 -123t104 -77.5t128.5 -27
q53 0 98.5 20.5t78.5 61t52 100t19 136.5q0 88 -22.5 159t-65.5 121t-104 76.5t-138 26.5q-33 0 -75.5 -14.5t-80 -50t-63.5 -95.5t-26 -150zM488 1253q29 -54 75.5 -125.5t106.5 -143.5v-18l-37 -17q-33 22 -75.5 52.5t-85 64t-80.5 66.5t-62 60l18 33q13 2 32.5 5.5t40 7
t38.5 7.5t29 8z" />
    <glyph glyph-name="oacute" unicode="&#xf3;" horiz-adv-x="1137" 
d="M604 826q98 0 180 -29t141.5 -83t92.5 -130.5t33 -171.5q0 -89 -36.5 -169.5t-103.5 -141t-162 -96.5t-212 -36q-109 0 -193 34t-141.5 91t-87 131.5t-29.5 156.5q0 105 41 187.5t111.5 139.5t164.5 87t201 30zM281 439q0 -91 25 -163.5t69.5 -123t104 -77.5t128.5 -27
q53 0 98.5 20.5t78.5 61t52 100t19 136.5q0 88 -22.5 159t-65.5 121t-104 76.5t-138 26.5q-33 0 -75.5 -14.5t-80 -50t-63.5 -95.5t-26 -150zM649 1253q10 -4 28 -8.5t38 -8t39.5 -6.5t33.5 -5l18 -33q-24 -27 -63 -60t-82 -66.5t-85 -64t-73 -52.5l-37 17v18
q60 72 106 143.5t77 125.5z" />
    <glyph glyph-name="ocircumflex" unicode="&#xf4;" horiz-adv-x="1137" 
d="M604 826q98 0 180 -29t141.5 -83t92.5 -130.5t33 -171.5q0 -89 -36.5 -169.5t-103.5 -141t-162 -96.5t-212 -36q-109 0 -193 34t-141.5 91t-87 131.5t-29.5 156.5q0 105 41 187.5t111.5 139.5t164.5 87t201 30zM281 439q0 -91 25 -163.5t69.5 -123t104 -77.5t128.5 -27
q53 0 98.5 20.5t78.5 61t52 100t19 136.5q0 88 -22.5 159t-65.5 121t-104 76.5t-138 26.5q-33 0 -75.5 -14.5t-80 -50t-63.5 -95.5t-26 -150zM565 1146q-23 -21 -52.5 -46.5t-61 -51.5t-64 -50.5t-61.5 -44.5l-37 15v18q28 33 56 69t54 71t48 67t37 58h163q19 -28 43 -61
t50.5 -67.5t54 -69.5t53.5 -67v-18l-37 -15q-27 20 -59.5 44.5t-65.5 50t-64.5 51t-56.5 47.5z" />
    <glyph glyph-name="otilde" unicode="&#xf5;" horiz-adv-x="1137" 
d="M604 826q98 0 180 -29t141.5 -83t92.5 -130.5t33 -171.5q0 -89 -36.5 -169.5t-103.5 -141t-162 -96.5t-212 -36q-109 0 -193 34t-141.5 91t-87 131.5t-29.5 156.5q0 105 41 187.5t111.5 139.5t164.5 87t201 30zM281 439q0 -91 25 -163.5t69.5 -123t104 -77.5t128.5 -27
q53 0 98.5 20.5t78.5 61t52 100t19 136.5q0 88 -22.5 159t-65.5 121t-104 76.5t-138 26.5q-33 0 -75.5 -14.5t-80 -50t-63.5 -95.5t-26 -150zM430 1069q-12 0 -30.5 -6.5t-40 -18t-44 -26.5t-42.5 -32l-41 42q26 22 59 46t67.5 44.5t67.5 33.5t60 13q31 0 65.5 -15t69.5 -37
t64 -37.5t52 -15.5q15 0 32.5 7.5t34.5 20t34 29t31 33.5l45 -33q-20 -27 -46.5 -54t-57 -49.5t-63.5 -36.5t-65 -14t-70.5 15.5t-70.5 37.5t-61.5 37.5t-49.5 15.5z" />
    <glyph glyph-name="odieresis" unicode="&#xf6;" horiz-adv-x="1137" 
d="M604 826q98 0 180 -29t141.5 -83t92.5 -130.5t33 -171.5q0 -89 -36.5 -169.5t-103.5 -141t-162 -96.5t-212 -36q-109 0 -193 34t-141.5 91t-87 131.5t-29.5 156.5q0 105 41 187.5t111.5 139.5t164.5 87t201 30zM281 439q0 -91 25 -163.5t69.5 -123t104 -77.5t128.5 -27
q53 0 98.5 20.5t78.5 61t52 100t19 136.5q0 88 -22.5 159t-65.5 121t-104 76.5t-138 26.5q-33 0 -75.5 -14.5t-80 -50t-63.5 -95.5t-26 -150zM266 1086v9q6 5 26 14.5t43.5 19t46 17.5t33.5 9l62 -106l-6 -11q-6 -2 -24 -11t-38.5 -20t-39 -22.5t-25.5 -18.5zM665 1086v9
q6 5 26 14.5t44 19t46.5 17.5t33.5 9l61 -106l-6 -11q-5 -2 -23 -11t-38.5 -20t-39.5 -22.5t-26 -18.5z" />
    <glyph glyph-name="divide" unicode="&#xf7;" horiz-adv-x="1024" 
d="M76 637h872v-94h-872v94zM401 291q7 6 26.5 16t43 20t45.5 18t33 9l59 -100l-10 -23q-4 -1 -21.5 -9.5t-37.5 -19.5t-38 -21.5t-24 -16.5zM401 946q7 6 26.5 16.5t43 20.5t45 18t33.5 9l59 -101l-10 -22q-4 -1 -21.5 -9.5t-37.5 -19t-38 -21t-24 -16.5z" />
    <glyph glyph-name="oslash" unicode="&#xf8;" horiz-adv-x="1137" 
d="M604 826q134 0 238 -56l131 152l65 -48l-129 -148q66 -54 104 -132.5t38 -181.5q0 -89 -36.5 -169.5t-103.5 -141t-162 -96.5t-212 -36q-73 0 -133 15t-109 41l-141 -161l-62 48l137 158q-72 60 -107.5 139t-35.5 173q0 105 41 187.5t111.5 139.5t164.5 87t201 30z
M281 439q0 -73 16 -133t45 -108l408 467q-42 40 -98.5 62t-125.5 22q-33 0 -75.5 -14.5t-80 -50t-63.5 -95.5t-26 -150zM856 366q0 70 -14.5 128.5t-42.5 106.5l-408 -467q89 -86 217 -86q53 0 98.5 20.5t78.5 61t52 100t19 136.5z" />
    <glyph glyph-name="ugrave" unicode="&#xf9;" horiz-adv-x="1145" 
d="M776 478q0 85 -2.5 146t-7.5 89q-26 -5 -42.5 -7.5t-39.5 -7.5l-12 55q32 7 66.5 16.5t69 21t67.5 23.5t61 24l27 -14q-3 -21 -6 -59.5t-5.5 -90t-4 -114.5t-1.5 -132v-39v-96.5t1 -75t2.5 -60t4.5 -51.5l131 27l9 -52q-17 -4 -51.5 -15t-76 -27t-82.5 -34.5t-71 -37.5
l-29 14l-4 115q-91 -49 -172.5 -82t-148.5 -33q-26 0 -57.5 4.5t-64 16.5t-62.5 32t-53.5 50.5t-37.5 73.5t-14 100v220q0 27 -1 60.5t-2.5 66.5t-3 62t-3.5 46q-26 -5 -48 -9.5t-46 -6.5l-15 54q32 7 69 17t74.5 22t73 24t62.5 24l26 -14q-2 -21 -4.5 -59.5t-5 -90
t-4.5 -114.5t-2 -132v-154q0 -45 14.5 -79t40.5 -57t62 -34.5t80 -11.5q28 0 63.5 8.5t69.5 20t62.5 23t43.5 18.5v316zM461 1253q29 -54 75.5 -125.5t106.5 -143.5v-18l-37 -17q-33 22 -75.5 52.5t-85 64t-80.5 66.5t-62 60l18 33q13 2 32.5 5.5t40 7t38.5 7.5t29 8z" />
    <glyph glyph-name="uacute" unicode="&#xfa;" horiz-adv-x="1145" 
d="M776 478q0 85 -2.5 146t-7.5 89q-26 -5 -42.5 -7.5t-39.5 -7.5l-12 55q32 7 66.5 16.5t69 21t67.5 23.5t61 24l27 -14q-3 -21 -6 -59.5t-5.5 -90t-4 -114.5t-1.5 -132v-39v-96.5t1 -75t2.5 -60t4.5 -51.5l131 27l9 -52q-17 -4 -51.5 -15t-76 -27t-82.5 -34.5t-71 -37.5
l-29 14l-4 115q-91 -49 -172.5 -82t-148.5 -33q-26 0 -57.5 4.5t-64 16.5t-62.5 32t-53.5 50.5t-37.5 73.5t-14 100v220q0 27 -1 60.5t-2.5 66.5t-3 62t-3.5 46q-26 -5 -48 -9.5t-46 -6.5l-15 54q32 7 69 17t74.5 22t73 24t62.5 24l26 -14q-2 -21 -4.5 -59.5t-5 -90
t-4.5 -114.5t-2 -132v-154q0 -45 14.5 -79t40.5 -57t62 -34.5t80 -11.5q28 0 63.5 8.5t69.5 20t62.5 23t43.5 18.5v316zM656 1253q10 -4 28 -8.5t38 -8t39.5 -6.5t33.5 -5l18 -33q-24 -27 -63 -60t-82 -66.5t-85 -64t-73 -52.5l-37 17v18q60 72 106 143.5t77 125.5z" />
    <glyph glyph-name="ucircumflex" unicode="&#xfb;" horiz-adv-x="1145" 
d="M776 478q0 85 -2.5 146t-7.5 89q-26 -5 -42.5 -7.5t-39.5 -7.5l-12 55q32 7 66.5 16.5t69 21t67.5 23.5t61 24l27 -14q-3 -21 -6 -59.5t-5.5 -90t-4 -114.5t-1.5 -132v-39v-96.5t1 -75t2.5 -60t4.5 -51.5l131 27l9 -52q-17 -4 -51.5 -15t-76 -27t-82.5 -34.5t-71 -37.5
l-29 14l-4 115q-91 -49 -172.5 -82t-148.5 -33q-26 0 -57.5 4.5t-64 16.5t-62.5 32t-53.5 50.5t-37.5 73.5t-14 100v220q0 27 -1 60.5t-2.5 66.5t-3 62t-3.5 46q-26 -5 -48 -9.5t-46 -6.5l-15 54q32 7 69 17t74.5 22t73 24t62.5 24l26 -14q-2 -21 -4.5 -59.5t-5 -90
t-4.5 -114.5t-2 -132v-154q0 -45 14.5 -79t40.5 -57t62 -34.5t80 -11.5q28 0 63.5 8.5t69.5 20t62.5 23t43.5 18.5v316zM555 1146q-23 -21 -52.5 -46.5t-61 -51.5t-64 -50.5t-61.5 -44.5l-37 15v18q28 33 56 69t54 71t48 67t37 58h163q19 -28 43 -61t50.5 -67.5t54 -69.5
t53.5 -67v-18l-37 -15q-27 20 -59.5 44.5t-65.5 50t-64.5 51t-56.5 47.5z" />
    <glyph glyph-name="udieresis" unicode="&#xfc;" horiz-adv-x="1145" 
d="M776 478q0 85 -2.5 146t-7.5 89q-26 -5 -42.5 -7.5t-39.5 -7.5l-12 55q32 7 66.5 16.5t69 21t67.5 23.5t61 24l27 -14q-3 -21 -6 -59.5t-5.5 -90t-4 -114.5t-1.5 -132v-39v-96.5t1 -75t2.5 -60t4.5 -51.5l131 27l9 -52q-17 -4 -51.5 -15t-76 -27t-82.5 -34.5t-71 -37.5
l-29 14l-4 115q-91 -49 -172.5 -82t-148.5 -33q-26 0 -57.5 4.5t-64 16.5t-62.5 32t-53.5 50.5t-37.5 73.5t-14 100v220q0 27 -1 60.5t-2.5 66.5t-3 62t-3.5 46q-26 -5 -48 -9.5t-46 -6.5l-15 54q32 7 69 17t74.5 22t73 24t62.5 24l26 -14q-2 -21 -4.5 -59.5t-5 -90
t-4.5 -114.5t-2 -132v-154q0 -45 14.5 -79t40.5 -57t62 -34.5t80 -11.5q28 0 63.5 8.5t69.5 20t62.5 23t43.5 18.5v316zM250 1086v9q6 5 26 14.5t43.5 19t46 17.5t33.5 9l62 -106l-6 -11q-6 -2 -24 -11t-38.5 -20t-39 -22.5t-25.5 -18.5zM649 1086v9q6 5 26 14.5t44 19
t46.5 17.5t33.5 9l61 -106l-6 -11q-5 -2 -23 -11t-38.5 -20t-39.5 -22.5t-26 -18.5z" />
    <glyph glyph-name="yacute" unicode="&#xfd;" horiz-adv-x="1020" 
d="M469 -15q-94 194 -180 369t-162 312q-15 27 -26.5 44t-21.5 26t-19.5 13t-20.5 6l-33 5v52l81 -3q32 -1 63 -1.5t43 -0.5q63 0 116 2.5t109 2.5v-52l-37 -3q-31 -3 -48.5 -9t-17.5 -20t6 -32.5t17 -43.5q29 -61 55.5 -119.5t53 -117.5t55 -121t61.5 -129q23 51 47 106
t47 111t45 109.5t41 101.5q3 6 8.5 21t11 33t9.5 35.5t4 28.5q0 25 -13.5 34t-51.5 12h-10.5t-13.5 1l-17 2v52q27 0 47 -1t40.5 -1.5t44 -1.5t56.5 -1q28 0 47 1t35.5 1.5t33.5 1.5t42 1v-52l-35 -3q-28 -2 -50 -27.5t-52 -88.5q-29 -64 -52 -113t-43 -95
q-22 -51 -44.5 -99t-49 -105t-59 -128.5t-74.5 -168.5q-52 -119 -104 -207t-108 -146.5t-117.5 -87t-133.5 -28.5q-43 0 -90.5 9t-79.5 21q0 17 -1 40t-3 47.5t-4.5 47.5t-5.5 39l41 19q35 -46 76.5 -73.5t83.5 -27.5q32 0 67.5 9.5t75 40t82.5 89.5t90 158q12 26 23 53
t20 50zM602 1253q10 -4 28 -8.5t38 -8t39.5 -6.5t33.5 -5l18 -33q-24 -27 -63 -60t-82 -66.5t-85 -64t-73 -52.5l-37 17v18q60 72 106 143.5t77 125.5z" />
    <glyph glyph-name="thorn" unicode="&#xfe;" horiz-adv-x="1102" 
d="M829 422q0 84 -19.5 149t-55.5 108.5t-86.5 66t-112.5 22.5q-22 0 -50 -7t-56.5 -18t-54.5 -24t-44 -25v-588q28 -18 81.5 -34.5t125.5 -16.5q64 0 115 26.5t85.5 75t53 116t18.5 149.5zM1016 469q0 -108 -41.5 -200t-113.5 -158.5t-168.5 -104t-207.5 -37.5
q-40 0 -77.5 5t-59.5 12q0 -26 1 -54.5t1 -54.5v-287q1 -38 5.5 -59.5t14 -32.5t25 -14t39.5 -4l88 -4v-54q-29 0 -64 1t-71 2.5t-71.5 2.5t-65.5 1q-10 0 -38.5 -1t-61.5 -2.5t-63 -2.5t-42 -1v54l64 6q21 2 34 6.5t20 15.5t9.5 31.5t3.5 54.5q1 33 2 69.5t1.5 82.5
t0.5 105.5v138.5v561v319q0 125 -1 208.5t-3 135.5q-1 31 -2 55t-2 42q-25 -8 -51 -14.5t-47 -14.5l-17 51q15 5 48.5 19t74.5 32.5t83.5 40.5t74.5 43l27 -16l-7 -132q-3 -66 -5.5 -161t-2.5 -223v-158q28 15 65.5 33t78.5 33.5t83 26t80 10.5q63 0 127 -23t115.5 -72.5
t84 -127t32.5 -185.5z" />
    <glyph glyph-name="ydieresis" unicode="&#xff;" horiz-adv-x="1020" 
d="M469 -15q-94 194 -180 369t-162 312q-15 27 -26.5 44t-21.5 26t-19.5 13t-20.5 6l-33 5v52l81 -3q32 -1 63 -1.5t43 -0.5q63 0 116 2.5t109 2.5v-52l-37 -3q-31 -3 -48.5 -9t-17.5 -20t6 -32.5t17 -43.5q29 -61 55.5 -119.5t53 -117.5t55 -121t61.5 -129q23 51 47 106
t47 111t45 109.5t41 101.5q3 6 8.5 21t11 33t9.5 35.5t4 28.5q0 25 -13.5 34t-51.5 12h-10.5t-13.5 1l-17 2v52q27 0 47 -1t40.5 -1.5t44 -1.5t56.5 -1q28 0 47 1t35.5 1.5t33.5 1.5t42 1v-52l-35 -3q-28 -2 -50 -27.5t-52 -88.5q-29 -64 -52 -113t-43 -95
q-22 -51 -44.5 -99t-49 -105t-59 -128.5t-74.5 -168.5q-52 -119 -104 -207t-108 -146.5t-117.5 -87t-133.5 -28.5q-43 0 -90.5 9t-79.5 21q0 17 -1 40t-3 47.5t-4.5 47.5t-5.5 39l41 19q35 -46 76.5 -73.5t83.5 -27.5q32 0 67.5 9.5t75 40t82.5 89.5t90 158q12 26 23 53
t20 50zM234 1086v9q6 5 26 14.5t43.5 19t46 17.5t33.5 9l62 -106l-6 -11q-6 -2 -24 -11t-38.5 -20t-39 -22.5t-25.5 -18.5zM633 1086v9q6 5 26 14.5t44 19t46.5 17.5t33.5 9l61 -106l-6 -11q-5 -2 -23 -11t-38.5 -20t-39.5 -22.5t-26 -18.5z" />
    <glyph glyph-name="dotlessi" unicode="&#x131;" horiz-adv-x="571" 
d="M373 351v-44t0.5 -56t1.5 -55.5t2 -41.5q3 -36 7.5 -56.5t13.5 -31t24 -13.5t39 -5l35 -2v-52q-45 0 -104.5 3t-119.5 3q-10 0 -38 -1t-61 -2t-62.5 -2t-42.5 -1v52l69 6q16 1 27.5 5t19 14.5t11 30t4.5 52.5q0 14 0.5 46.5t1.5 70t1.5 73t0.5 56.5v103q0 75 -3.5 117
t-14 64t-30.5 31t-53 18l7 41q26 3 60 10t67.5 16t61.5 17.5t42 14.5l39 -18l-3 -134q-2 -63 -2.5 -146.5t-0.5 -182.5z" />
    <glyph glyph-name="OE" unicode="&#x152;" horiz-adv-x="1888" 
d="M1065 1251h267.5t174.5 1t104.5 3.5t57.5 6.5l25 -13v-300l-66 -3q-12 74 -31.5 131.5t-58.5 77.5q-26 11 -80 17t-129 6h-194q-2 -52 -3.5 -148.5t-1.5 -250.5v-99h480l6 -14q-8 -17 -14.5 -33.5t-12.5 -39.5q-100 8 -182 9.5t-145 1.5h-132v-529h277q72 0 120.5 6
t74.5 17q21 10 37 28t27 40.5t18.5 48t11.5 51.5l8 54l70 -4q-2 -20 -4.5 -59t-5 -85l-5 -92t-4.5 -80l-24 -11q-42 7 -123 9t-215 2q-125 0 -207 -0.5t-138 -0.5t-94 -0.5t-75 -0.5q-65 -6 -131 -6q-144 0 -262.5 46t-204 126.5t-132.5 189.5t-47 235q0 100 29.5 189
t81.5 164.5t124 135.5t157 102t180 64.5t194 22.5q45 0 98.5 -4t98.5 -12zM805 86q29 0 66.5 2t74.5 8q2 11 3 30.5t3 38.5q2 43 3 127t1 222v300q0 43 -1 91t-2.5 89.5t-2.5 70.5t-2 34q-2 14 -3 25t-3 22q-40 11 -80 16t-82 5q-89 0 -176 -26.5t-155.5 -87.5t-111 -161.5
t-42.5 -248.5q0 -110 27.5 -194.5t71.5 -146t99.5 -103t112.5 -67t109.5 -36t89.5 -10.5z" />
    <glyph glyph-name="oe" unicode="&#x153;" horiz-adv-x="1692" 
d="M1444 460q-45 0 -91 1t-91 3l-145 3q-20 1 -41 1h-43l-2 -19q-1 -8 -1 -18.5v-18.5q0 -58 14 -116t46 -104.5t85.5 -76t131.5 -29.5q58 0 109.5 19.5t88.5 41.5l66 38l35 -51l-74 -49q-29 -20 -65.5 -40t-78.5 -36.5t-89 -27t-97 -10.5q-81 0 -157.5 38t-131.5 116
q-66 -72 -163 -114t-224 -42q-107 0 -189 34t-137.5 91t-84.5 131.5t-29 156.5q0 105 40 187.5t108.5 139.5t160.5 87t197 30q115 0 207 -42.5t149 -118.5q70 78 171 119.5t216 41.5q58 0 109.5 -22t90.5 -62t62 -97t23 -127zM281 439q0 -91 24.5 -163.5t67 -123t100 -77.5
t123.5 -27q51 0 95 20.5t76.5 61t50.5 100t18 136.5q0 88 -22 159t-63 121t-100 76.5t-133 26.5q-32 0 -73 -14.5t-77.5 -50t-61.5 -95.5t-25 -150zM1262 747q-30 0 -64.5 -15t-65.5 -43t-55.5 -68.5t-34.5 -91.5q57 0 115.5 0.5t109.5 0.5t91.5 0.5t62.5 0.5
q-2 51 -16.5 91.5t-37 68t-50 42t-55.5 14.5z" />
    <glyph glyph-name="Scaron" unicode="&#x160;" horiz-adv-x="983" 
d="M125 907q0 67 22 120.5t58 95t81.5 71t93.5 49t93.5 28.5t81.5 9q69 0 131.5 -8.5t122.5 -27.5q2 -27 4.5 -59t4.5 -64.5t3.5 -63t1.5 -52.5l-63 -10q-18 54 -42.5 90.5t-57 59t-73 32t-89.5 9.5q-37 0 -77.5 -11t-74.5 -36t-56 -64t-22 -94q0 -53 25 -92.5t66 -71
t93 -57t107 -49.5q63 -28 123 -58.5t107 -70t75.5 -91t28.5 -120.5q0 -76 -22.5 -134.5t-60 -102t-85.5 -73t-100 -47.5t-103 -25.5t-94 -7.5q-51 0 -100 7.5t-92 20t-78 28.5t-58 33q-2 22 -5 61t-6 80.5t-5 78t-2 53.5l61 13q20 -70 48 -122.5t68.5 -87t96.5 -52
t133 -17.5q126 0 190 60.5t64 162.5q0 54 -25 94.5t-66 73t-94 58t-109 49.5q-57 24 -115 54.5t-104.5 70.5t-75.5 91t-29 116zM524 1448q23 18 52.5 40.5t61 45.5t64 44.5t61.5 38.5l37 -13v-15q-27 -29 -55 -60.5t-54 -62.5t-48 -59t-37 -50h-164q-18 24 -42 53
t-50.5 59.5t-54.5 61t-54 58.5v15l37 13q28 -17 60.5 -38.5t65.5 -44.5t64 -45.5t56 -40.5z" />
    <glyph glyph-name="scaron" unicode="&#x161;" horiz-adv-x="786" 
d="M379 749q-62 0 -92.5 -29.5t-30.5 -70.5q0 -33 16.5 -57t44.5 -42.5t63.5 -32.5t74.5 -28q46 -17 91 -36.5t81 -47t58 -65t22 -90.5q0 -73 -31.5 -124t-80.5 -83.5t-108.5 -47t-115.5 -14.5q-170 0 -265 61q-2 23 -4 52l-4 58t-3.5 54.5t-2.5 41.5l53 10
q20 -57 46.5 -95.5t59.5 -62.5t71 -34.5t81 -10.5q72 0 115 35.5t43 98.5q0 37 -18 63.5t-47.5 46t-67.5 34.5t-78 29q-46 17 -90 36.5t-78 45.5t-55 60t-21 80q0 47 18 83t47 63t65 45.5t73 29.5t71 16t58 5q60 0 111.5 -10t85.5 -26q1 -12 2 -36.5t2 -52t1.5 -53
t0.5 -40.5l-51 -9q-35 76 -88.5 113t-122.5 37zM410 1057q23 22 52.5 47t61 50.5t64 50t61.5 44.5l37 -15v-18q-27 -32 -55.5 -68t-54 -71.5t-47.5 -68t-37 -57.5h-164q-18 28 -42 61t-50.5 67.5t-54.5 69.5t-54 67v18l37 15q28 -20 60.5 -44t65.5 -49.5t64 -51t56 -47.5z
" />
    <glyph glyph-name="Ydieresis" unicode="&#x178;" horiz-adv-x="1284" 
d="M647 0q-9 0 -25 -0.5t-36 -1t-42.5 -1t-44.5 -0.5l-112 -3v52l94 6q22 1 37.5 5t25 14.5t14.5 30t7 52.5q1 25 2 51.5t2 63.5t1.5 89t0.5 127q-22 40 -40 71t-33.5 56.5t-30 48t-31 47t-36 53t-44.5 65.5q-7 9 -22 30.5t-34 49.5t-39.5 58.5t-38.5 57t-31 46l-17 25.5
q-21 29 -36.5 48t-29.5 30.5t-29 17.5t-36 9l-43 7v52l89 -3q36 -2 73.5 -2.5t60.5 -0.5q15 0 47.5 1t72 2t81 2t74.5 1v-52l-60 -4q-43 -2 -59.5 -12.5t-16.5 -35.5q0 -17 8 -38t17 -35q19 -31 43.5 -68t51.5 -77.5t54.5 -82.5t53.5 -84q13 -21 31 -48.5t35 -53.5
q10 -15 19.5 -30t20.5 -30q18 26 35.5 53t34.5 53q15 22 31 46.5t31.5 49.5t30 49.5t26.5 45.5q11 18 24.5 40.5t27 44.5t25.5 42t19 32q9 18 18 42.5t9 39.5q0 34 -22 44t-67 13l-57 4v52l100 -3q20 -1 41 -1.5t40.5 -1t36 -0.5h28.5q15 0 44.5 0.5t58.5 2.5l73 3v-52
l-43 -4q-23 -2 -41 -14t-35 -32q-27 -35 -65 -89.5t-80 -118t-84.5 -131t-80 -128t-66 -109t-41.5 -74.5v-351q0 -59 22.5 -79t68.5 -22l89 -7v-52q-22 0 -59 1t-78.5 2t-80 2t-63.5 1zM356 1522v9q6 5 26 14.5t43.5 19t46 17.5t33.5 9l62 -106l-6 -11q-6 -2 -24 -11
t-38.5 -20t-39 -22.5t-25.5 -18.5zM755 1522v9q6 5 26 14.5t44 19t46.5 17.5t33.5 9l61 -106l-6 -11q-5 -2 -23 -11t-38.5 -20t-39.5 -22.5t-26 -18.5z" />
    <glyph glyph-name="Zcaron" unicode="&#x17d;" horiz-adv-x="1212" 
d="M477 1170q-41 -1 -71.5 -5t-53 -9t-38.5 -11.5t-29 -12.5q-20 -10 -35 -27t-26 -38t-17.5 -44t-9.5 -45l-7 -50h-71q1 20 3.5 63t4.5 92.5t4 95.5t4 72l25 11q21 -4 56 -6.5t79 -3.5t96 -1h107h549l24 -22q-120 -176 -230 -340t-207 -311t-178.5 -274t-144.5 -229h467
q125 0 195.5 45t87.5 152l8 51h70q0 -19 -2 -61.5t-4 -90.5t-5 -93.5t-4 -69.5l-24 -19q-42 7 -123 9t-215 2h-395q-20 0 -57 -0.5t-78.5 -1t-81 -2.5t-64.5 -5l-25 34q202 290 391.5 575t374.5 576zM604 1448q23 18 52.5 40.5t61 45.5t64 44.5t61.5 38.5l37 -13v-15
q-27 -29 -55 -60.5t-54 -62.5t-48 -59t-37 -50h-164q-18 24 -42 53t-50.5 59.5t-54.5 61t-54 58.5v15l37 13q28 -17 60.5 -38.5t65.5 -44.5t64 -45.5t56 -40.5z" />
    <glyph glyph-name="zcaron" unicode="&#x17e;" horiz-adv-x="868" 
d="M70 0l-15 31l486 700h-45q-78 0 -124 -1t-79 -2q-35 -1 -54.5 -13.5t-29 -32t-12.5 -44t-4 -49.5h-72v29t1 27q0 23 0.5 45.5t0.5 35.5v38t-2 41l24 13q21 -4 48 -6.5t64.5 -3.5t87.5 -1h118h264l16 -32l-471 -700h144q75 0 118.5 5.5t71.5 13.5q29 7 47.5 20t30 29.5
t18 34.5t11.5 35q2 8 4 18.5t4 18.5l70 -4q-2 -16 -4 -39.5t-5 -48.5q-4 -40 -8 -84t-6 -74l-25 -11q-21 3 -46.5 5t-61.5 3.5t-85 2t-116 0.5h-364zM442 1057q23 22 52.5 47t61 50.5t64 50t61.5 44.5l37 -15v-18q-27 -32 -55.5 -68t-54 -71.5t-47.5 -68t-37 -57.5h-164
q-18 28 -42 61t-50.5 67.5t-54.5 69.5t-54 67v18l37 15q28 -20 60.5 -44t65.5 -49.5t64 -51t56 -47.5z" />
    <glyph glyph-name="florin" unicode="&#x192;" horiz-adv-x="1024" 
d="M424 -25q-24 -132 -72.5 -233.5t-111.5 -170.5t-136 -104.5t-145 -35.5q-21 0 -41.5 3t-37.5 8t-30 10.5t-20 10.5v9q5 12 11 30.5t12 39t11 40t7 33.5h31q9 -11 19 -21.5t21 -19.5q19 -16 44.5 -28.5t56.5 -12.5q23 0 46 18.5t44 50.5t40.5 75t35.5 91.5t28.5 100
t20.5 100.5l117 699h-187l-10 16l49 45l162 12q23 132 72 231.5t113 165.5t138 99t146 33q21 0 43.5 -3.5t42.5 -8.5t35 -10.5t22 -10.5v-8q-5 -12 -11 -31t-12 -39.5t-10.5 -40t-6.5 -33.5h-31q-38 30 -78.5 56t-87.5 26q-42 0 -75 -35t-57.5 -94t-42.5 -137t-30 -164h242
l4 -20l-80 -53l-174 8z" />
    <glyph glyph-name="circumflex" unicode="&#x2c6;" horiz-adv-x="737" 
d="M362 1146q-23 -21 -52.5 -46.5t-61 -51.5t-64 -50.5t-61.5 -44.5l-37 15v18q28 33 56 69t54 71t48 67t37 58h163q19 -28 43 -61t50.5 -67.5t54 -69.5t53.5 -67v-18l-37 -15q-27 20 -59.5 44.5t-65.5 50t-64.5 51t-56.5 47.5z" />
    <glyph glyph-name="caron" unicode="&#x2c7;" horiz-adv-x="737" 
d="M379 1057q23 22 52.5 47t61 50.5t64 50t61.5 44.5l37 -15v-18q-27 -32 -55.5 -68t-54 -71.5t-47.5 -68t-37 -57.5h-164q-18 28 -42 61t-50.5 67.5t-54.5 69.5t-54 67v18l37 15q28 -20 60.5 -44t65.5 -49.5t64 -51t56 -47.5z" />
    <glyph glyph-name="ring" unicode="&#x2da;" horiz-adv-x="655" 
d="M514 1115q0 -73 -48 -119.5t-144 -46.5q-94 0 -142.5 46.5t-48.5 119.5q0 35 12.5 64.5t36.5 51.5t59.5 34t82.5 12q48 0 84 -12t60 -33.5t36 -51.5t12 -65zM426 1115q0 45 -29 71.5t-75 26.5q-48 0 -75.5 -26.5t-27.5 -71.5q0 -48 27.5 -75.5t75.5 -27.5q46 0 75 27.5
t29 75.5z" />
    <glyph glyph-name="tilde" unicode="&#x2dc;" horiz-adv-x="737" 
d="M225 1069q-12 0 -30.5 -6.5t-40 -18t-44 -26.5t-42.5 -32l-41 42q26 22 59 46t67.5 44.5t67.5 33.5t60 13q31 0 65.5 -15t69.5 -37t64 -37.5t52 -15.5q15 0 32.5 7.5t34.5 20t34 29t31 33.5l45 -33q-20 -27 -46.5 -54t-57 -49.5t-63.5 -36.5t-65 -14t-70.5 15.5
t-70.5 37.5t-61.5 37.5t-49.5 15.5z" />
    <glyph glyph-name="uni0600" unicode="&#x600;" horiz-adv-x="1641" 
d="M1508 586q-6 -8 -12 -15.5t-11 -15.5q-12 -17 -24.5 -34t-23 -34.5t-17 -36t-6.5 -39.5v-12t2 -12q14 -11 33.5 -34t37.5 -51t30.5 -58t12.5 -54q0 -20 -4 -41t-15 -43q-7 -14 -16.5 -30.5t-23.5 -39.5q-2 -4 -6 -8t-9 -4t-9 3.5t-8 5.5q-28 18 -58.5 34.5t-63.5 16.5
q-15 0 -32.5 -7t-36.5 -18q-37 -23 -72 -42.5t-71 -40.5q-62 -36 -136 -62t-150 -42.5t-148.5 -24.5t-132.5 -8q-20 0 -53.5 4.5t-73 12t-81.5 17t-79.5 20.5t-66.5 22t-42 21q-17 12 -24 20.5t-7 14.5q0 11 20.5 14t44.5 3q64 0 147.5 0.5t175 4.5t186 13t181.5 25
q40 7 87 18.5t92.5 27t86.5 35t69 42.5l7 9q11 15 27 35.5t31.5 39.5t29 33t19.5 15q3 19 8 43t12.5 48.5t17.5 49t22 44.5q22 37 50 70t58 63q7 7 15 7q14 0 14 -13q0 -8 -4 -12z" />
    <glyph glyph-name="uni0601" unicode="&#x601;" horiz-adv-x="2794" 
d="M116 -251q19 44 43 93.5t55 96t69.5 85t86.5 61.5q56 28 131 28q31 0 60.5 -7.5t58.5 -7.5q26 0 48 6t42 20q31 23 50 57t36 72q14 30 26 41t24 11q10 0 20 -4.5t21 -9.5q50 -22 110.5 -36t125.5 -21.5t132.5 -10.5t130.5 -3q36 0 70 0.5t65 1.5q167 4 323 27.5t294 67
t255 106.5t206 147q13 13 32 28.5t39 15.5q14 0 14 -11t-10.5 -28t-27.5 -39q-144 -183 -323.5 -299t-388.5 -168q-68 -17 -143.5 -30t-153.5 -21.5t-156 -13t-151 -4.5q-152 0 -264 18q-100 15 -170.5 38.5t-102.5 48.5q-94 -216 -279 -218q-33 0 -58 6t-53 6
q-18 0 -38.5 -5t-40.5 -13t-38.5 -17.5t-31.5 -19.5q-32 -23 -58 -52t-49 -57q-5 -8 -15 -17.5t-15 -9.5q-7 0 -7 13q0 11 6 28zM552 563q27 33 45.5 56t32.5 39.5t25.5 30.5t24.5 29q6 6 8 6q3 0 14 -8q3 -2 20 -14.5t37.5 -27.5t38 -28t21.5 -16q5 -5 9 -8t4 -7t-3 -7
l-130 -157q-2 -3 -3 -3h-2q-4 0 -12 5q-25 16 -54.5 39.5t-63.5 52.5q-6 6 -10 9.5t-4 5.5q0 1 2 3z" />
    <glyph glyph-name="uni0602" unicode="&#x602;" horiz-adv-x="1725" 
d="M123 204q8 17 27 42.5t45 54t56 57t62 51.5t62.5 37t57.5 14q32 0 54 -10t35 -27.5t18.5 -40t5.5 -47.5q0 -24 -4.5 -49.5t-12 -49.5t-17 -45.5t-19.5 -37.5q40 -2 76.5 -2.5t75.5 -0.5q224 0 444.5 7.5t443.5 36.5q16 2 27.5 2.5t24.5 0.5q29 0 29 -7q0 -5 -13.5 -12.5
t-35.5 -16.5t-48 -18t-51 -17t-45.5 -14t-31.5 -9q-109 -36 -219.5 -56t-225.5 -32q-67 -7 -158.5 -11t-185.5 -4q-58 0 -113 1.5t-102.5 4.5t-84 8t-57.5 12q-26 8 -49.5 20t-42.5 28.5t-30 37t-11 44.5q0 19 13 48zM445 160q0 78 -23 125.5t-65 47.5q-17 0 -34 -8
t-31.5 -20.5t-23.5 -28.5t-9 -31q0 -23 23 -38.5t54 -25.5t62 -15t47 -6z" />
    <glyph glyph-name="uni0603" unicode="&#x603;" horiz-adv-x="1891" 
d="M1761 319q-23 -78 -68 -146t-106.5 -119t-136 -80t-156.5 -29q-31 0 -59.5 5t-52 18t-39 36.5t-20.5 61.5q-14 -11 -49 -37.5t-84 -55.5q-62 -37 -136 -64t-150.5 -45t-149.5 -27t-133 -9q-30 0 -74.5 8.5t-89 23t-81.5 33t-51 39.5q-15 22 -15 38q0 18 20 23.5t46 5.5
q18 0 43.5 -1t51.5 -2t50 -2t40 -1q59 0 125.5 3t134.5 10.5t135.5 20t129.5 31.5q30 9 62.5 22.5t62 28.5t53.5 30.5t38 28.5q9 8 22.5 26t27.5 36t26.5 32t20.5 14q5 0 13 -13.5t18 -19.5q20 -11 43.5 -16t46.5 -5h10.5t10.5 1l129 187q17 24 39.5 49.5t49 47t56.5 35
t62 13.5q26 0 45.5 -11.5t32.5 -30t19.5 -41.5t6.5 -46q0 -28 -6 -54.5t-14 -52.5zM1634 420q-40 0 -74 -20t-62.5 -50t-51.5 -65t-40 -65q93 0 174 31t135 91q3 3 3 6q0 36 -26 54t-58 18z" />
    <glyph glyph-name="uni0609" unicode="&#x609;" horiz-adv-x="1219" 
d="M765 1217l86 -92l-617 -1204l-83 83zM261 1103l138 -138l-130 -126l-134 138zM721 286l126 -129l-119 -120l-130 126zM1014 286l126 -129l-120 -120l-129 126z" />
    <glyph glyph-name="uni060A" unicode="&#x60a;" horiz-adv-x="1508" 
d="M765 1217l86 -92l-617 -1204l-83 83zM261 1103l138 -138l-130 -126l-134 138zM721 286l126 -129l-119 -120l-130 126zM1003 286l126 -129l-120 -120l-129 126zM1284 286l126 -129l-120 -120l-129 126z" />
    <glyph glyph-name="uni060C" unicode="&#x60c;" horiz-adv-x="450" 
d="M110 148q0 85 29 163q26 73 54.5 138t71.5 128q4 7 9 7q7 0 7 -10v-2q-4 -13 -9.5 -24t-10.5 -20q-14 -29 -29 -59.5t-28 -62.5t-21 -65t-8 -66q0 -12 3 -30t10 -34.5t18.5 -28.5t28.5 -12q7 0 9 7.5t4 12.5l26 82q2 8 8 8q4 0 5 -1q20 -18 36.5 -34t16.5 -42
q0 -7 -5 -25.5t-12 -39.5t-13.5 -39t-9.5 -24q-11 -33 -32 -54.5t-58 -21.5q-29 0 -48.5 14.5t-31 36.5t-16 48.5t-4.5 49.5z" />
    <glyph glyph-name="uni060D" unicode="&#x60d;" horiz-adv-x="478" 
d="M244 198q23 21 58.5 37.5t72.5 16.5q7 0 20.5 -2.5t26.5 -7.5t23 -12.5t10 -18.5q0 -9 -4 -21t-10 -26t-14 -28t-17 -27q-22 -32 -37 -48.5t-27 -16.5q-7 0 -12.5 3.5l-11 7t-12 7t-14.5 3.5q-13 0 -27 -4.5t-27 -11.5t-24 -14t-18 -13q-22 -18 -39.5 -43.5t-32 -53.5
t-26 -56.5t-20.5 -52.5q-4 -11 -7 -21t-10 -21q-3 -5 -7.5 -7t-9.5 -2t-6.5 5.5t-1.5 13.5q0 18 7 48.5t19 65t26.5 70.5t29.5 65q23 46 56 91t66 74z" />
    <glyph glyph-name="uni060E" unicode="&#x60e;" horiz-adv-x="1734" 
d="M125 205q7 17 22.5 42.5t37 54t46.5 57t51 51.5t51.5 37t47.5 14q28 0 47.5 -11.5t31.5 -29.5t17.5 -41t5.5 -47q0 -3 -1.5 -15.5t-4 -30.5t-7 -37.5t-10 -36.5t-12.5 -28t-15 -11q-6 0 -9.5 6t-5.5 13.5l-4 15t-4 10.5q-10 16 -22 35.5t-26 36.5t-31.5 28.5t-38.5 11.5
q-18 0 -32.5 -7t-25.5 -18t-17 -26t-6 -30q0 -34 29 -57q8 -6 20.5 -10.5t26 -7.5t26.5 -5t22 -3q66 -9 129 -11t129 -2q175 0 344 5t345 12q26 1 68.5 5.5t88 9.5t86.5 9t64 4q29 0 29 -7q0 -5 -13.5 -13t-35 -17t-47.5 -18.5t-51 -17.5t-45.5 -14.5t-31.5 -9.5
q-105 -29 -200.5 -48t-190 -30.5t-192.5 -16.5t-207 -5q-58 0 -113 1.5t-102.5 4.5t-84 8t-57.5 12q-25 8 -49 20t-42.5 28t-30 36.5t-11.5 45.5q0 20 11 48z" />
    <glyph glyph-name="uni060F" unicode="&#x60f;" horiz-adv-x="1374" 
d="M-163 -669q-4 -4 -8 -4q-6 0 -6 8q0 4 1 5q78 152 168 294t187 282q-39 66 -56.5 133t-17.5 145q0 140 33 270.5t100 251.5q9 15 23 39t30 49t31.5 48.5t26.5 38.5q-17 6 -45.5 19.5t-56.5 32t-48.5 40.5t-20.5 46q0 13 9.5 28t15.5 23q54 76 106 151.5t120 138.5
q23 17 48 24t53 7q21 0 46 -6.5t46.5 -19.5t36 -32.5t14.5 -45.5q0 -18 -8 -32t-20.5 -23.5t-29 -15t-32.5 -5.5q-12 0 -23.5 6t-22.5 13.5t-22.5 14t-24.5 8.5q-17 3 -33 3q-42 0 -72.5 -20t-57.5 -55q16 -28 39.5 -51.5t52 -40.5t60 -26.5t64.5 -9.5q9 0 21.5 6t42.5 24
t84.5 49.5t147.5 82.5q1 1 5 1q9 0 9 -10q0 -5 -7.5 -12t-25.5 -23t-48.5 -44t-77.5 -74q-96 -51 -183 -115t-153.5 -144t-106 -176.5t-39.5 -211.5q0 -41 3 -84t13 -84.5t29.5 -79.5t52.5 -69q2 3 20.5 25t45.5 54t59 69.5t61.5 71t53 58.5t33.5 33q52 48 115 100t133 95.5
t144.5 71.5t149.5 28q27 0 56.5 -8t54 -23.5t40.5 -40t16 -57.5q0 -24 -6.5 -51t-16.5 -54t-21.5 -52.5t-21.5 -46.5q-32 -64 -76.5 -135t-99 -140.5t-117.5 -132.5t-132.5 -111.5t-143.5 -77t-150 -28.5q-75 0 -148.5 30.5t-148.5 100.5q-28 -35 -64 -86t-74.5 -107.5
t-76.5 -114.5t-70 -107t-55.5 -84.5t-32.5 -47.5zM348 58q19 -24 45.5 -41.5t56.5 -28.5t62 -16t62 -5q89 0 169 30.5t150.5 80t131.5 113t112 129.5q5 7 12.5 16.5t14.5 20.5t12 22.5t5 22.5q0 30 -18.5 48.5t-45.5 28.5t-57 13.5t-52 3.5q-52 0 -103.5 -16t-101.5 -43
t-98.5 -62.5t-94 -73.5t-89 -77t-83.5 -73q-8 -7 -21 -19t-26.5 -25t-25 -26t-17.5 -23z" />
    <glyph glyph-name="uni0610" unicode="&#x610;" 
d="M225 335q0 -19 -5 -37.5t-11 -35.5q-13 -39 -37 -69t-56.5 -51t-71 -31.5t-80.5 -10.5q-25 0 -47 5q1 -8 1 -15.5v-15.5q0 -51 -9.5 -96.5t-30.5 -93.5q-5 -11 -8 -11q-5 0 -5 18q2 14 2 27.5v27.5q0 34 -2.5 62.5t-6 57t-6 58.5t-2.5 66v52q6 27 15.5 51.5t18.5 48.5
q7 18 12.5 31.5t8.5 13.5q2 0 2 -9q0 -5 -0.5 -12.5t-1.5 -18.5q-1 -6 -1 -12.5v-12.5q0 -17 1.5 -34t3.5 -35q14 -11 33 -18.5t46 -7.5q27 35 49.5 68.5t53.5 66.5q15 16 35 28.5t42 12.5q27 0 42 -21.5t15 -46.5zM147 332q-17 0 -31.5 -7t-27 -17.5t-23.5 -23t-20 -24.5
q-5 -8 -13 -18.5t-8 -15.5q25 0 53.5 6.5t53 16.5t41.5 22.5t18 23.5q0 18 -13 27.5t-30 9.5z" />
    <glyph glyph-name="uni0611" unicode="&#x611;" 
d="M-162 256q6 27 14.5 51.5t18.5 48.5q6 19 11.5 32.5t8.5 13.5q2 0 2 -9q0 -5 -0.5 -13t-1.5 -19q-1 -6 -1.5 -12.5t-0.5 -12.5q0 -23 3.5 -45t6.5 -44q1 -11 5.5 -20.5t9.5 -15.5q5 -9 19 -16.5t31 -7.5q11 0 20 3q-8 8 -14 18.5t-6 21.5q0 18 12 36.5t22 31.5l49 81
q13 20 31.5 35.5t42.5 15.5q19 0 36 -12t17 -33q0 -16 -10 -27.5t-27 -11.5l-52 20q-18 0 -30 -13t-19 -28q3 -12 12.5 -22.5t21.5 -19t25.5 -13.5t25.5 -5q15 0 27 7t22.5 18t19.5 23.5t17 23.5q2 4 6 8t8 4t4 -5q0 -4 -2 -10l-26 -44t-25 -44q-26 -40 -55.5 -78.5
t-70.5 -61.5q-24 -13 -49.5 -20t-52.5 -7q-18 0 -39 8q0 -51 -10 -96t-30 -93q-5 -11 -8 -11q-6 0 -6 18q3 31 3 62q0 24 -2.5 55.5t-5.5 67t-5.5 71.5t-2.5 69v26z" />
    <glyph glyph-name="uni0612" unicode="&#x612;" 
d="M-287 146q-8 0 -8 9q0 6 4 16.5t9.5 20.5t10.5 18t7 10q27 43 56.5 66.5t63.5 34t73.5 12.5t86.5 2q11 0 30.5 -1.5t38 -5.5t32.5 -12t14 -21q0 -22 -15 -41t-35 -35.5t-41 -30t-34 -24.5q-29 -24 -55 -45.5t-52 -47.5t-52.5 -61t-57.5 -87q-23 -39 -39 -39q-10 0 -10 17
q0 10 6 30q21 65 51.5 114t63 84.5t64.5 60t56 40.5q-13 7 -29.5 9t-31.5 3q-10 1 -19.5 1.5t-19.5 0.5q-13 0 -26 -1t-25 -3q-18 -3 -33.5 -12t-30.5 -23q-4 -4 -10.5 -13.5t-14 -19.5t-15 -18t-13.5 -8zM8 -74q-26 -8 -40 -8q-5 0 -10.5 1t-5.5 5t7 11.5t18 17.5
q9 7 20.5 15.5t22 17t19.5 15.5t13 11q43 34 65.5 62t33 51.5t14 44t8.5 39.5q5 18 7.5 40.5t6.5 50.5q1 9 6.5 21.5t16.5 12.5q10 0 12.5 -6t2.5 -11q0 -79 -8.5 -152.5t-38.5 -145.5q-4 -9 -12 -20t-18 -21t-20.5 -17.5t-19.5 -9.5q-19 -4 -28 -6t-17 -3.5t-19.5 -5
t-35.5 -10.5z" />
    <glyph glyph-name="uni0613" unicode="&#x613;" 
d="M87 352q0 -19 -5 -38t-11 -36q-13 -38 -37 -68t-56.5 -51t-71 -32t-80.5 -11q-25 0 -47 5q1 -8 1 -15.5v-15.5q0 -51 -9.5 -96t-30.5 -94q-4 -10 -8 -10q-5 0 -5 18q2 14 2 28v28q0 34 -2.5 70.5t-5.5 72t-5.5 68t-2.5 57.5v27q0 12 4 26.5t9.5 28.5t11.5 26.5t10 21.5
q7 16 11.5 29t7.5 13q2 0 2 -9q0 -5 -0.5 -12.5t-1.5 -18.5q-1 -6 -1 -12.5v-13.5q0 -18 1.5 -35t3.5 -33q14 -11 33.5 -18.5t45.5 -7.5q27 35 49.5 68.5t53.5 66.5q15 15 35 28t42 13q27 0 42 -22t15 -46zM8 -23q-26 -8 -39 -8q-5 0 -11 1.5t-6 5.5t7 12t18 16q20 17 43 34
t32 26q43 34 65.5 62t33.5 51.5t14.5 44t8.5 39.5q5 18 7 40.5t6 50.5q1 9 6.5 21t16.5 12q9 0 12 -6t3 -10q0 -81 -8.5 -153.5t-38.5 -144.5q-4 -9 -12 -20t-18 -21t-20.5 -17.5t-19.5 -9.5q-19 -5 -28 -6.5t-17 -3.5t-19.5 -5t-35.5 -11zM-159 522q14 18 23.5 30t17 20.5
t13.5 15t13 13.5q3 3 5 3t9 -4l60 -43q8 -6 8 -9t-2 -5q-4 -5 -12 -15.5t-18 -22.5t-20 -23.5t-17 -18.5q-3 -3 -5 -3q-4 0 -8 3q-14 10 -33.5 24.5t-30.5 23.5q-5 5 -5 7t2 4zM9 349q-17 0 -31 -6.5t-27 -16t-23.5 -21.5t-19.5 -23l-6 -9t-7.5 -12t-6 -11.5t-2.5 -6.5
q21 0 49 6.5t53.5 16.5t44 22t19.5 24q0 18 -13 27.5t-30 9.5z" />
    <glyph glyph-name="uni0614" unicode="&#x614;" 
d="M451 295q-9 -60 -40 -114t-76 -94q-8 -7 -16.5 -12t-18.5 -5q-7 0 -9 1q-18 5 -33.5 9t-30.5 4q-28 0 -56 -18q-37 -24 -69 -46.5t-64 -41.5q-36 -21 -74 -35t-74 -23t-69.5 -12.5t-61.5 -3.5q-17 0 -31 1t-26 3q-43 8 -80 26t-69 37q-17 10 -23.5 16.5t-6.5 11.5
q0 6 11 8t26 2h26.5t32 -0.5l33 -1t29.5 -1.5h25q59 0 123.5 8.5t127.5 28.5t119.5 52t99.5 79q16 17 37 29t45 12q14 0 31 -6q12 -4 22.5 -9t23.5 -5q23 0 37 15t23.5 34.5t17.5 39t20 29.5q1 1 5 1q13 0 13 -17v-2z" />
    <glyph glyph-name="uni061B" unicode="&#x61b;" horiz-adv-x="506" 
d="M137 148q0 85 29 163q26 73 54.5 138t71.5 128q4 7 9 7q7 0 7 -10v-2q-4 -13 -9.5 -24t-10.5 -20q-14 -29 -29 -59.5t-28 -62.5t-21 -65t-8 -66q0 -12 3 -30t10 -34.5t18.5 -28.5t28.5 -12q7 0 9 7.5t4 12.5l26 82q2 8 8 8q4 0 5 -1q20 -18 36.5 -34t16.5 -42
q0 -7 -5 -25.5t-12 -39.5t-13.5 -39t-9.5 -24q-11 -33 -32 -54.5t-58 -21.5q-29 0 -48.5 14.5t-31 36.5t-16 48.5t-4.5 49.5zM114 -264q27 33 45.5 56t32.5 39.5t25.5 30.5t24.5 29q6 6 8 6q3 0 14 -8q3 -2 20 -14.5t37.5 -27.5t38 -28t21.5 -16q5 -5 9 -8t4 -7t-3 -7
l-130 -157q-2 -3 -3 -3h-2q-4 0 -12 5q-25 16 -54.5 39.5t-63.5 52.5q-6 6 -10 9.5t-4 5.5q0 1 2 3z" />
    <glyph glyph-name="uni061F" unicode="&#x61f;" horiz-adv-x="824" 
d="M567 -165l-100 -100l-90 100l100 100zM410 963q35 0 69.5 -9.5t66.5 -29.5q61 -38 103.5 -94t57.5 -125q4 -15 4 -30q0 -16 -9 -16t-25.5 14.5t-33.5 32.5t-32.5 35t-23.5 23q-24 17 -52 29.5t-57 12.5q-51 0 -96.5 -21.5t-74.5 -59.5q-16 -23 -22.5 -44.5t-6.5 -40.5
q0 -27 11.5 -50.5t29 -45t38.5 -41t40 -38.5q63 -63 97.5 -134.5t34.5 -152.5q0 -8 -0.5 -16.5t-1.5 -16.5q0 -38 -13.5 -77.5t-36.5 -62.5q-17 -11 -23 -11q-8 0 -8 11q0 12 5.5 30.5t5.5 29.5q2 18 3.5 35t1.5 34q0 37 -9 71t-35 71q-18 32 -47.5 59.5t-63 55t-68 56
t-62 61.5t-45 72.5t-17.5 88.5q0 61 24.5 114.5t65.5 93.5t94.5 63t110.5 23z" />
    <glyph glyph-name="uni0621" unicode="&#x621;" horiz-adv-x="706" 
d="M126 315q0 7 6.5 17.5t16.5 23t21 27t20 30.5q16 28 36.5 61.5t42.5 56.5q26 28 60 51.5t74 23.5q33 0 59 -21.5t26 -55.5q0 -17 -7.5 -33.5t-27.5 -16.5q-14 0 -25 6t-22.5 13.5t-23.5 14t-28 6.5q-29 0 -54.5 -19t-36.5 -47q13 -14 31.5 -29t39.5 -27t43.5 -20t42.5 -8
q23 0 43.5 10.5t45.5 27.5q23 15 43 25t32 15q7 3 21.5 7t22.5 4q3 0 7 -2.5t4 -5.5q0 -7 -5.5 -13.5t-10.5 -10.5q-19 -15 -36.5 -29t-37.5 -29l-50 -37.5t-43.5 -32.5t-44.5 -33.5t-51 -39.5q-21 -16 -42.5 -33.5t-41.5 -35t-36.5 -33.5t-28.5 -30q-23 -28 -36.5 -45.5
t-20.5 -27.5q-8 -11 -18.5 -16.5t-16.5 -5.5q-4 0 -6 3.5t-2 8.5q0 9 8 27q6 15 20.5 41.5t32.5 55t36 53t31 35.5q2 1 -15.5 9t-39 20.5t-40 29t-18.5 34.5z" />
    <glyph glyph-name="uni0622" unicode="&#x622;" horiz-adv-x="336" 
d="M124 143q2 45 3.5 100.5t2.5 115.5t1.5 122t1 121.5t0.5 113.5v98q0 16 7.5 49t18.5 72t24 78.5t25 69.5q11 27 23 46t23 20q10 0 10 -16q0 -13 -3.5 -32t-5.5 -40q-6 -70 -8.5 -139t-2.5 -138q0 -54 2 -108.5t2 -108.5q0 -114 -19 -220t-69 -207q-10 -22 -21 -22
q-12 0 -15 25zM288 1236q-30 0 -61 4.5t-58 17.5q-16 8 -33 17.5t-37 9.5q-37 0 -66.5 -19t-46.5 -41q-11 -17 -19 -17q-5 0 -5 6q0 5 5 20q13 32 32 68t42.5 66t50.5 50t56 20q21 0 39 -8.5t37 -18t40.5 -18t49.5 -8.5q67 0 130 17t115 54q5 3 16 13t23 21.5t23 20.5t16 10
q3 0 5.5 -3.5t2.5 -6.5q0 -2 -1 -8.5t-2 -7.5q-26 -50 -58.5 -97t-75 -83t-96.5 -57.5t-124 -21.5z" />
    <glyph glyph-name="uni0623" unicode="&#x623;" horiz-adv-x="336" 
d="M110 143q2 45 3.5 100.5t2.5 115.5t1.5 122t1 121.5t0.5 113.5v98q0 16 7.5 49t18.5 72t24 78.5t25 69.5q11 27 23 46t23 20q10 0 10 -16q0 -13 -3.5 -32t-5.5 -40q-6 -70 -8.5 -139t-2.5 -138q0 -54 2 -108.5t2 -108.5q0 -114 -19 -220t-69 -207q-10 -22 -21 -22
q-12 0 -15 25zM44 1402q0 5 4.5 13.5t11.5 19t14 22t13 22.5q11 22 25.5 41.5t28.5 33.5q17 17 40 29t49 12q20 0 35 -17t15 -39q0 -10 -6 -23t-17 -13q-8 0 -15 3.5t-14 8t-15 8t-18 3.5q-9 0 -19.5 -4.5t-20 -12t-17 -16t-11.5 -16.5q11 -12 26 -22.5t31 -18.5t32 -13
t29 -5t27 9t28 17t24.5 13.5t19.5 9.5q14 7 24 7q2 0 5 -3t3 -5q0 -5 -2.5 -12t-7.5 -12q-10 -10 -19 -16t-20 -15q-31 -24 -57 -45t-50 -41q-12 -10 -26 -22l-28 -24t-26 -23t-18 -17q-12 -12 -20.5 -22t-16.5 -18q-8 -10 -22 -10q-4 0 -5 4.5t-1 8.5q0 3 2 7.5t4 9.5
q4 9 11.5 22.5t17 28.5t21 30.5t23.5 27.5q-13 5 -29 12.5t-30 17.5t-23.5 21t-9.5 23z" />
    <glyph glyph-name="uni0624" unicode="&#x624;" horiz-adv-x="528" 
d="M438 425q0 -94 -29.5 -187t-81.5 -185q-13 -23 -30 -34t-36 -19q-28 -13 -67.5 -29.5t-81.5 -34.5q-10 -4 -24 -10t-28.5 -11t-27.5 -9t-20 -4q-9 0 -9 7q0 10 18.5 30t42 41t44 38t24.5 21q51 45 99 89.5t96 90.5q12 12 12 31q0 25 -17 42q-32 -23 -72 -23
q-24 0 -46.5 9t-40 24.5t-28.5 36t-11 43.5q0 28 15 78.5t41 137.5q14 48 42 68.5t60 20.5q30 0 58 -17.5t47 -51.5q10 -19 19.5 -44t16.5 -51.5t11 -52t4 -45.5zM123 929q0 5 4.5 13.5t11.5 19t14 22t13 22.5q11 22 25.5 41.5t28.5 33.5q17 17 40 29t49 12q20 0 35 -17
t15 -39q0 -10 -6 -23t-17 -13q-8 0 -15 3.5t-14 8t-15 8t-18 3.5q-9 0 -19.5 -4.5t-20 -12t-17 -16t-11.5 -16.5q11 -12 26 -22.5t31 -18.5t32 -13t29 -5t27 9t28 17t24.5 13.5t19.5 9.5q14 7 24 7q2 0 5 -3t3 -5q0 -5 -2.5 -12t-7.5 -12q-10 -10 -19 -16t-20 -15
q-31 -24 -57 -45t-50 -41q-12 -10 -26 -22l-28 -24t-26 -23t-18 -17q-12 -12 -20.5 -22t-16.5 -18q-8 -10 -22 -10q-4 0 -5 4.5t-1 8.5q0 3 2 7.5t4 9.5q4 9 11.5 22.5t17 28.5t21 30.5t23.5 27.5q-13 5 -29 12.5t-30 17.5t-23.5 21t-9.5 23z" />
    <glyph glyph-name="uni0625" unicode="&#x625;" horiz-adv-x="336" 
d="M110 143q2 45 3.5 100.5t2.5 115.5t1.5 122t1 121.5t0.5 113.5v98q0 16 7.5 49t18.5 72t24 78.5t25 69.5q11 27 23 46t23 20q10 0 10 -16q0 -13 -3.5 -32t-5.5 -40q-6 -70 -8.5 -139t-2.5 -138q0 -54 2 -108.5t2 -108.5q0 -114 -19 -220t-69 -207q-10 -22 -21 -22
q-12 0 -15 25zM-14 -224q0 5 4.5 13.5t11.5 19t14 22t13 22.5q12 22 26 41.5t28 33.5q17 17 40.5 29t48.5 12q20 0 35 -16.5t15 -38.5q0 -11 -6 -24t-17 -13q-8 0 -15 3.5t-14 8t-15 8t-18 3.5q-9 0 -19.5 -4.5t-20 -12t-17 -16t-10.5 -16.5q10 -11 25 -21.5t31.5 -18.5
t32.5 -13t29 -5q12 0 25.5 9t28.5 17q13 7 23 12.5t21 10.5q6 3 13 4.5t11 1.5q2 0 5 -2.5t3 -4.5q0 -6 -2 -12.5t-7 -11.5q-11 -11 -19.5 -16.5t-20.5 -15.5q-31 -24 -57 -44.5t-49 -40.5q-12 -10 -26.5 -22t-28.5 -24.5t-26 -23t-18 -17.5q-12 -11 -20.5 -21.5
t-16.5 -18.5q-8 -10 -22 -10q-4 0 -5 4.5t-1 9.5q0 3 2 7t4 9q4 9 11.5 22.5t17 29t21 31t23.5 27.5q-13 4 -29 12t-30 17.5t-23.5 20.5t-9.5 23z" />
    <glyph glyph-name="uni0626" unicode="&#x626;" horiz-adv-x="1358" 
d="M1161 996q-14 14 -29.5 23t-35.5 9q-15 0 -41 -17.5t-57 -46t-63 -64.5t-58.5 -72t-43 -68.5t-16.5 -54.5t13.5 -35.5t33 -21t42.5 -10t42 -2.5h16t14 1q13 -15 22 -44t15 -62t8.5 -65.5t2.5 -54.5q0 -76 -21 -156t-59 -156.5t-90.5 -145t-116.5 -120t-136.5 -81.5
t-150.5 -30q-82 0 -145.5 31t-107 85t-66.5 128t-23 161q0 91 18 187.5t44 184.5q16 52 33 98t33 83t29.5 64t21.5 41q10 17 17.5 24.5t12.5 7.5q6 0 9 -9t3 -23q0 -11 -1.5 -23.5t-5.5 -24.5q-17 -58 -37 -115t-37.5 -115t-29 -116.5t-11.5 -119.5q0 -50 14.5 -105
t47 -101.5t86 -76.5t131.5 -30q80 0 161 30t146.5 82.5t106.5 125t41 158.5v6q-116 5 -168 54t-52 155q0 38 6 85q12 88 47 170.5t85.5 157t113 140t130.5 119.5q20 16 47.5 28t56.5 12q9 0 19.5 -3t19.5 -8t14.5 -11.5t5.5 -14.5q0 -12 -5.5 -34.5t-14.5 -49.5t-20.5 -55.5
t-23.5 -52.5t-23 -39.5t-20 -16.5zM355 1140q0 5 4.5 13.5t11.5 19t14 22t13 22.5q11 22 25.5 41.5t28.5 33.5q17 17 40 29t49 12q20 0 35 -17t15 -39q0 -10 -6 -23t-17 -13q-8 0 -15 3.5t-14 8t-15 8t-18 3.5q-9 0 -19.5 -4.5t-20 -12t-17 -16t-11.5 -16.5q11 -12 26 -22.5
t31 -18.5t32 -13t29 -5t27 9t28 17t24.5 13.5t19.5 9.5q14 7 24 7q2 0 5 -3t3 -5q0 -5 -2.5 -12t-7.5 -12q-10 -10 -19 -16t-20 -15q-31 -24 -57 -45t-50 -41q-12 -10 -26 -22l-28 -24t-26 -23t-18 -17q-12 -12 -20.5 -22t-16.5 -18q-8 -10 -22 -10q-4 0 -5 4.5t-1 8.5
q0 3 2 7.5t4 9.5q4 9 11.5 22.5t17 28.5t21 30.5t23.5 27.5q-13 5 -29 12.5t-30 17.5t-23.5 21t-9.5 23z" />
    <glyph glyph-name="uni0627" unicode="&#x627;" horiz-adv-x="336" 
d="M110 143q2 45 3.5 100.5t2.5 115.5t1.5 122t1 121.5t0.5 113.5v98q0 16 7.5 49t18.5 72t24 78.5t25 69.5q11 27 23 46t23 20q10 0 10 -16q0 -13 -3.5 -32t-5.5 -40q-6 -70 -8.5 -139t-2.5 -138q0 -54 2 -108.5t2 -108.5q0 -114 -19 -220t-69 -207q-10 -22 -21 -22
q-12 0 -15 25z" />
    <glyph glyph-name="uni0628" unicode="&#x628;" horiz-adv-x="1557" 
d="M181 530q6 0 7.5 -9.5t1.5 -17.5q0 -27 -2.5 -48t-2.5 -42q0 -36 8.5 -61.5t25.5 -43.5t42.5 -30t59.5 -21q67 -18 141.5 -27.5t152.5 -9.5q71 0 144 4t146 13.5t143.5 25t136.5 38.5q28 10 60.5 24.5t62.5 34t53.5 43.5t34.5 53q2 5 5.5 16t8 22t9.5 19.5t11 8.5
q8 0 12.5 -7t4.5 -15q0 -29 -9 -65.5t-25 -74t-38.5 -72.5t-49.5 -61q-71 -68 -158 -111.5t-187 -69t-210.5 -35.5t-227.5 -10q-41 0 -89 2.5t-96 11t-92.5 24t-79 41.5t-55 63t-20.5 89q0 40 6.5 92t17 97.5t23 77t24.5 31.5zM641 -228q30 38 63.5 78t59.5 71q5 5 8 5
q4 0 14 -7q26 -18 57 -41t60 -45q5 -5 9 -8t4 -7q0 -3 -6 -11l-121 -146q-2 -3 -5.5 -6.5t-5.5 -3.5q-4 0 -12 5q-28 19 -60 44t-61 51q-10 8 -10 12q0 2 2 4.5t4 4.5z" />
    <glyph glyph-name="uni0629" unicode="&#x629;" horiz-adv-x="551" 
d="M133 138q0 28 4.5 61t13 66t19 64.5t22.5 57.5q-1 5 -4.5 8.5t-7 7.5t-6.5 9.5t-3 16.5q0 9 2.5 31t7 50t10.5 58t12 55.5t11.5 42.5t10.5 19q13 5 20.5 6t18.5 1q78 0 134 -39.5t86 -108.5q4 -13 7.5 -29t6.5 -32.5t4.5 -32t1.5 -27.5q0 -28 -6 -58t-15.5 -59.5
t-20.5 -57.5t-21 -51q-14 -33 -34 -67.5t-46.5 -63.5t-59.5 -47.5t-73 -18.5q-26 0 -44.5 14t-29.5 34.5t-16 44.5t-5 45zM414 276q0 28 -15.5 54.5t-39 46.5t-52 32t-55.5 12q-6 0 -16 -28t-19 -63.5t-15.5 -68t-6.5 -41.5q0 -26 13.5 -44.5t54.5 -18.5q20 0 45.5 11.5
t48.5 29.5t39 39t18 39zM22 1059q30 38 63.5 78t59.5 71q5 5 8 5q4 0 14 -7q26 -18 59.5 -43.5t62.5 -47.5q29 35 59 72t55 66q5 5 8 5q4 0 14 -7q26 -18 59.5 -42.5t62.5 -46.5q5 -5 9 -8t4 -7q0 -3 -6 -11l-121 -146q-2 -3 -5.5 -6.5t-5.5 -3.5q-4 0 -12 5
q-28 19 -61.5 44.5t-62.5 51.5l-113 -136q-2 -3 -5.5 -6.5t-5.5 -3.5q-4 0 -12 5q-28 19 -61.5 45.5t-62.5 52.5q-10 8 -10 12q0 2 2 4.5t4 4.5z" />
    <glyph glyph-name="uni062A" unicode="&#x62a;" horiz-adv-x="1557" 
d="M181 530q6 0 7.5 -9.5t1.5 -17.5q0 -27 -2.5 -48t-2.5 -42q0 -36 8.5 -61.5t25.5 -43.5t42.5 -30t59.5 -21q67 -18 141.5 -27.5t152.5 -9.5q71 0 144 4t146 13.5t143.5 25t136.5 38.5q28 10 60.5 24.5t62.5 34t53.5 43.5t34.5 53q2 5 5.5 16t8 22t9.5 19.5t11 8.5
q8 0 12.5 -7t4.5 -15q0 -29 -9 -65.5t-25 -74t-38.5 -72.5t-49.5 -61q-71 -68 -158 -111.5t-187 -69t-210.5 -35.5t-227.5 -10q-41 0 -89 2.5t-96 11t-92.5 24t-79 41.5t-55 63t-20.5 89q0 40 6.5 92t17 97.5t23 77t24.5 31.5zM502 480q30 38 63.5 78t59.5 71q5 5 8 5
q4 0 14 -7q26 -18 59.5 -43.5t62.5 -47.5q29 35 59 72t55 66q5 5 8 5q4 0 14 -7q26 -18 59.5 -42.5t62.5 -46.5q5 -5 9 -8t4 -7q0 -3 -6 -11l-121 -146q-2 -3 -5.5 -6.5t-5.5 -3.5q-4 0 -12 5q-28 19 -61.5 44.5t-62.5 51.5l-113 -136q-2 -3 -5.5 -6.5t-5.5 -3.5q-4 0 -12 5
q-28 19 -61.5 45.5t-62.5 52.5q-10 8 -10 12q0 2 2 4.5t4 4.5z" />
    <glyph glyph-name="uni062B" unicode="&#x62b;" horiz-adv-x="1557" 
d="M181 530q6 0 7.5 -9.5t1.5 -17.5q0 -27 -2.5 -48t-2.5 -42q0 -36 8.5 -61.5t25.5 -43.5t42.5 -30t59.5 -21q67 -18 141.5 -27.5t152.5 -9.5q71 0 144 4t146 13.5t143.5 25t136.5 38.5q28 10 60.5 24.5t62.5 34t53.5 43.5t34.5 53q2 5 5.5 16t8 22t9.5 19.5t11 8.5
q8 0 12.5 -7t4.5 -15q0 -29 -9 -65.5t-25 -74t-38.5 -72.5t-49.5 -61q-71 -68 -158 -111.5t-187 -69t-210.5 -35.5t-227.5 -10q-41 0 -89 2.5t-96 11t-92.5 24t-79 41.5t-55 63t-20.5 89q0 40 6.5 92t17 97.5t23 77t24.5 31.5zM528 554q30 38 63.5 78t59.5 71q5 5 8 5
q4 0 14 -7q26 -18 59.5 -43.5t62.5 -47.5q29 35 59 72t55 66q5 5 8 5q4 0 14 -7q26 -18 59.5 -42.5t62.5 -46.5q5 -5 9 -8t4 -7q0 -3 -6 -11l-121 -146q-2 -3 -5.5 -6.5t-5.5 -3.5q-4 0 -12 5q-28 19 -61.5 44.5t-62.5 51.5l-113 -136q-2 -3 -5.5 -6.5t-5.5 -3.5q-4 0 -12 5
q-28 19 -61.5 45.5t-62.5 52.5q-10 8 -10 12q0 2 2 4.5t4 4.5zM652 813q30 38 61 77t57 70q5 5 8 5q4 0 14 -7q26 -18 57 -41t60 -45q5 -5 9 -8t4 -7q0 -3 -6 -11l-116 -144q-2 -3 -5.5 -6.5t-5.5 -3.5q-4 0 -12 5q-28 19 -60 44t-61 51q-10 8 -10 12q0 2 2 4.5t4 4.5z" />
    <glyph glyph-name="uni062C" unicode="&#x62c;" horiz-adv-x="1197" 
d="M127 788q-10 0 -10 11q0 8 5 20.5t12 26t13.5 24.5t9.5 16q31 49 62.5 80.5t67 49t77.5 24t94 6.5q12 0 33 -0.5t46.5 -2.5t51.5 -6t47 -10.5t34.5 -16.5t13.5 -23q0 -17 -8 -33t-21.5 -31t-30.5 -29.5t-35 -27.5q-75 -55 -144 -119.5t-122 -139.5t-85 -161.5t-32 -184.5
q0 -71 20 -127t59.5 -96t100 -61t141.5 -21q93 0 167 22.5t136 68.5t114 116.5t101 167.5q13 25 21.5 36t13.5 11q7 0 7 -17q0 -13 -4.5 -32t-12.5 -44q-31 -99 -84.5 -199.5t-130 -181.5t-175.5 -132t-219 -51q-103 0 -170.5 37t-107.5 97t-56.5 136t-16.5 154
q0 112 26 216.5t75 199.5t118 180t155 159q-8 6 -24 10t-36 6.5t-42 3.5t-42 1q-27 0 -45 -1.5t-33 -6.5t-30 -16.5t-35 -30.5q-5 -5 -13.5 -17.5t-18.5 -26t-20.5 -24t-17.5 -10.5zM474 377q30 38 63.5 78t59.5 71q5 5 8 5q4 0 14 -7q26 -18 57 -41t60 -45q5 -5 9 -8t4 -7
q0 -3 -6 -11l-121 -146q-2 -3 -5.5 -6.5t-5.5 -3.5q-4 0 -12 5q-28 19 -60 44t-61 51q-10 8 -10 12q0 2 2 4.5t4 4.5z" />
    <glyph glyph-name="uni062D" unicode="&#x62d;" horiz-adv-x="1197" 
d="M127 788q-10 0 -10 11q0 8 5 20.5t12 26t13.5 24.5t9.5 16q31 49 62.5 80.5t67 49t77.5 24t94 6.5q12 0 33 -0.5t46.5 -2.5t51.5 -6t47 -10.5t34.5 -16.5t13.5 -23q0 -17 -8 -33t-21.5 -31t-30.5 -29.5t-35 -27.5q-75 -55 -144 -119.5t-122 -139.5t-85 -161.5t-32 -184.5
q0 -71 20 -127t59.5 -96t100 -61t141.5 -21q93 0 167 22.5t136 68.5t114 116.5t101 167.5q13 25 21.5 36t13.5 11q7 0 7 -17q0 -13 -4.5 -32t-12.5 -44q-31 -99 -84.5 -199.5t-130 -181.5t-175.5 -132t-219 -51q-103 0 -170.5 37t-107.5 97t-56.5 136t-16.5 154
q0 112 26 216.5t75 199.5t118 180t155 159q-8 6 -24 10t-36 6.5t-42 3.5t-42 1q-27 0 -45 -1.5t-33 -6.5t-30 -16.5t-35 -30.5q-5 -5 -13.5 -17.5t-18.5 -26t-20.5 -24t-17.5 -10.5z" />
    <glyph glyph-name="uni062E" unicode="&#x62e;" horiz-adv-x="1197" 
d="M127 788q-10 0 -10 11q0 8 5 20.5t12 26t13.5 24.5t9.5 16q31 49 62.5 80.5t67 49t77.5 24t94 6.5q12 0 33 -0.5t46.5 -2.5t51.5 -6t47 -10.5t34.5 -16.5t13.5 -23q0 -17 -8 -33t-21.5 -31t-30.5 -29.5t-35 -27.5q-75 -55 -144 -119.5t-122 -139.5t-85 -161.5t-32 -184.5
q0 -71 20 -127t59.5 -96t100 -61t141.5 -21q93 0 167 22.5t136 68.5t114 116.5t101 167.5q13 25 21.5 36t13.5 11q7 0 7 -17q0 -13 -4.5 -32t-12.5 -44q-31 -99 -84.5 -199.5t-130 -181.5t-175.5 -132t-219 -51q-103 0 -170.5 37t-107.5 97t-56.5 136t-16.5 154
q0 112 26 216.5t75 199.5t118 180t155 159q-8 6 -24 10t-36 6.5t-42 3.5t-42 1q-27 0 -45 -1.5t-33 -6.5t-30 -16.5t-35 -30.5q-5 -5 -13.5 -17.5t-18.5 -26t-20.5 -24t-17.5 -10.5zM267 1342q30 38 63.5 78t59.5 71q5 5 8 5q4 0 14 -7q26 -18 57 -41t60 -45q5 -5 9 -8t4 -7
q0 -3 -6 -11l-121 -146q-2 -3 -5.5 -6.5t-5.5 -3.5q-4 0 -12 5q-28 19 -60 44t-61 51q-10 8 -10 12q0 2 2 4.5t4 4.5z" />
    <glyph glyph-name="uni062F" unicode="&#x62f;" horiz-adv-x="494" 
d="M424 400q0 -56 -17.5 -120t-43 -122t-54.5 -102t-51 -60q-7 -5 -27.5 -13.5t-48 -19t-59.5 -21.5t-60.5 -20t-51.5 -14.5t-33 -5.5q-8 0 -8 6q0 5 10.5 17t27 27t35.5 31t36 29.5t29.5 23.5t14.5 12q7 6 24 20t38 31t43.5 35.5t40.5 34.5t30 27.5t12 14.5q0 43 -24 81
t-58.5 67t-72.5 46.5t-65 19.5q-1 1 -1 6q0 8 4 30.5t10.5 51t15 60t17.5 57.5t18 43t16 17t28.5 -8t50 -23.5t59 -39.5t56.5 -56t42.5 -73t16.5 -90z" />
    <glyph glyph-name="uni0630" unicode="&#x630;" horiz-adv-x="494" 
d="M424 400q0 -56 -17.5 -120t-43 -122t-54.5 -102t-51 -60q-7 -5 -27.5 -13.5t-48 -19t-59.5 -21.5t-60.5 -20t-51.5 -14.5t-33 -5.5q-8 0 -8 6q0 5 10.5 17t27 27t35.5 31t36 29.5t29.5 23.5t14.5 12q7 6 24 20t38 31t43.5 35.5t40.5 34.5t30 27.5t12 14.5q0 43 -24 81
t-58.5 67t-72.5 46.5t-65 19.5q-1 1 -1 6q0 8 4 30.5t10.5 51t15 60t17.5 57.5t18 43t16 17t28.5 -8t50 -23.5t59 -39.5t56.5 -56t42.5 -73t16.5 -90zM57 999q30 38 63.5 78t59.5 71q5 5 8 5q4 0 14 -7q26 -18 57 -41t60 -45q5 -5 9 -8t4 -7q0 -3 -6 -11l-121 -146
q-2 -3 -5.5 -6.5t-5.5 -3.5q-4 0 -12 5q-28 19 -60 44t-61 51q-10 8 -10 12q0 2 2 4.5t4 4.5z" />
    <glyph glyph-name="uni0631" unicode="&#x631;" horiz-adv-x="471" 
d="M371 709q14 0 18 -9t4 -15q0 -75 -5.5 -158.5t-18 -168.5t-33 -167t-50.5 -154q-9 -21 -33.5 -39t-57.5 -33.5t-70.5 -27.5t-71.5 -20.5t-60.5 -13t-38.5 -4.5q-7 0 -14.5 2.5t-7.5 7.5q0 7 12 19t32 28.5t46.5 37t55.5 44.5q81 66 126.5 138.5t70 150.5t36.5 161t27 171
q1 7 3.5 15.5t6.5 16t9.5 13t13.5 5.5z" />
    <glyph glyph-name="uni0632" unicode="&#x632;" horiz-adv-x="554" 
d="M371 709q14 0 18 -9t4 -15q0 -75 -5.5 -158.5t-18 -168.5t-33 -167t-50.5 -154q-9 -21 -33.5 -39t-57.5 -33.5t-70.5 -27.5t-71.5 -20.5t-60.5 -13t-38.5 -4.5q-7 0 -14.5 2.5t-7.5 7.5q0 7 12 19t32 28.5t46.5 37t55.5 44.5q81 66 126.5 138.5t70 150.5t36.5 161t27 171
q1 7 3.5 15.5t6.5 16t9.5 13t13.5 5.5zM207 995q30 38 63.5 78t59.5 71q5 5 8 5q4 0 14 -7q26 -18 57 -41t60 -45q5 -5 9 -8t4 -7q0 -3 -6 -11l-121 -146q-2 -3 -5.5 -6.5t-5.5 -3.5q-4 0 -12 5q-28 19 -60 44t-61 51q-10 8 -10 12q0 2 2 4.5t4 4.5z" />
    <glyph glyph-name="uni0633" unicode="&#x633;" horiz-adv-x="1628" 
d="M1542 975q4 0 5 -7.5t1 -14.5q0 -26 -17 -62.5t-40.5 -71t-48 -58.5t-39.5 -24q-12 0 -31 9t-43 9q-17 0 -25 -4t-16 -12q-24 -30 -45.5 -52.5t-42.5 -39.5t-43.5 -29t-49.5 -22q-1 -79 -19.5 -174.5t-55.5 -193t-91.5 -188.5t-127.5 -162t-164 -114t-201 -43
q-87 0 -150.5 33.5t-105 88.5t-62 125.5t-20.5 145.5q0 66 7.5 121.5t21.5 105.5t33 98t42 99q9 20 19.5 38t20.5 31.5t18.5 21t14.5 7.5q7 0 7 -13q0 -22 -29 -96q-28 -69 -45.5 -138t-17.5 -141q0 -62 19.5 -113.5t55.5 -88.5t88 -57.5t117 -20.5q101 0 196 37t168.5 102
t117.5 153.5t44 190.5q0 60 -8 125t-8 129q0 18 6 37.5t15 38t18.5 33.5t16.5 24q4 5 8.5 6.5t7.5 1.5q7 0 10 -6t3 -13q2 -33 25 -47.5t56 -14.5q23 0 48.5 6.5t48.5 17.5q7 3 13 7.5t14 13t19 21t28 31.5q11 11 20.5 15t19.5 4q18 0 36.5 -8t41.5 -8q14 0 27 12t24 28
t19.5 32.5t13.5 25.5q7 12 11 12z" />
    <glyph glyph-name="uni0634" unicode="&#x634;" horiz-adv-x="1628" 
d="M1542 975q4 0 5 -7.5t1 -14.5q0 -26 -17 -62.5t-40.5 -71t-48 -58.5t-39.5 -24q-12 0 -31 9t-43 9q-17 0 -25 -4t-16 -12q-24 -30 -45.5 -52.5t-42.5 -39.5t-43.5 -29t-49.5 -22q-1 -79 -19.5 -174.5t-55.5 -193t-91.5 -188.5t-127.5 -162t-164 -114t-201 -43
q-87 0 -150.5 33.5t-105 88.5t-62 125.5t-20.5 145.5q0 66 7.5 121.5t21.5 105.5t33 98t42 99q9 20 19.5 38t20.5 31.5t18.5 21t14.5 7.5q7 0 7 -13q0 -22 -29 -96q-28 -69 -45.5 -138t-17.5 -141q0 -62 19.5 -113.5t55.5 -88.5t88 -57.5t117 -20.5q101 0 196 37t168.5 102
t117.5 153.5t44 190.5q0 60 -8 125t-8 129q0 18 6 37.5t15 38t18.5 33.5t16.5 24q4 5 8.5 6.5t7.5 1.5q7 0 10 -6t3 -13q2 -33 25 -47.5t56 -14.5q23 0 48.5 6.5t48.5 17.5q7 3 13 7.5t14 13t19 21t28 31.5q11 11 20.5 15t19.5 4q18 0 36.5 -8t41.5 -8q14 0 27 12t24 28
t19.5 32.5t13.5 25.5q7 12 11 12zM953 1140q30 38 63.5 78t59.5 71q5 5 8 5q4 0 14 -7q26 -18 59.5 -43.5t62.5 -47.5q29 35 59 72t55 66q5 5 8 5q4 0 14 -7q26 -18 59.5 -42.5t62.5 -46.5q5 -5 9 -8t4 -7q0 -3 -6 -11l-121 -146q-2 -3 -5.5 -6.5t-5.5 -3.5q-4 0 -12 5
q-28 19 -61.5 44.5t-62.5 51.5l-113 -136q-2 -3 -5.5 -6.5t-5.5 -3.5q-4 0 -12 5q-28 19 -61.5 45.5t-62.5 52.5q-10 8 -10 12q0 2 2 4.5t4 4.5zM1077 1399q30 38 61 77t57 70q5 5 8 5q4 0 14 -7q26 -18 57 -41t60 -45q5 -5 9 -8t4 -7q0 -3 -6 -11l-116 -144
q-2 -3 -5.5 -6.5t-5.5 -3.5q-4 0 -12 5q-28 19 -60 44t-61 51q-10 8 -10 12q0 2 2 4.5t4 4.5z" />
    <glyph glyph-name="uni0635" unicode="&#x635;" horiz-adv-x="1644" 
d="M1564 976q0 -94 -36.5 -176t-99.5 -143.5t-147 -97t-180 -35.5q0 -77 -22.5 -166t-64.5 -178t-101 -172t-131.5 -146.5t-157 -101.5t-176.5 -38q-87 0 -150.5 33.5t-105 88.5t-62 125.5t-20.5 145.5q0 63 7.5 118t21.5 106t33 100t42 100q9 20 19.5 38t20.5 31.5t18.5 21
t14.5 7.5q7 0 7 -13q0 -12 -6.5 -35t-21.5 -61q-28 -69 -46 -138t-18 -141q0 -62 19.5 -113.5t55.5 -88.5t88 -57.5t117 -20.5q101 0 196 37t168.5 102t117.5 153.5t44 190.5q0 27 -2.5 59.5t-5.5 65.5t-5.5 63.5t-2.5 53.5q0 27 8.5 55t20.5 50t24 36t20 14q3 0 4 -7.5
t4 -17.5t9 -20.5t20 -15.5q11 -5 28 -5.5t31 -0.5q18 24 38.5 57t43 68.5t47 69.5t52 61t56.5 43.5t61 16.5q25 0 44.5 -10t33 -27t20.5 -39t7 -46zM1213 782q18 0 47 5t63 14t68 20.5t62 25.5t45.5 29t17.5 30q0 16 -11.5 27.5t-28 19t-35 11t-31.5 3.5q-22 0 -42 -8
t-38 -21t-33.5 -30t-28.5 -34q-31 -40 -55 -92z" />
    <glyph glyph-name="uni0636" unicode="&#x636;" horiz-adv-x="1644" 
d="M1564 976q0 -94 -36.5 -176t-99.5 -143.5t-147 -97t-180 -35.5q0 -77 -22.5 -166t-64.5 -178t-101 -172t-131.5 -146.5t-157 -101.5t-176.5 -38q-87 0 -150.5 33.5t-105 88.5t-62 125.5t-20.5 145.5q0 63 7.5 118t21.5 106t33 100t42 100q9 20 19.5 38t20.5 31.5t18.5 21
t14.5 7.5q7 0 7 -13q0 -12 -6.5 -35t-21.5 -61q-28 -69 -46 -138t-18 -141q0 -62 19.5 -113.5t55.5 -88.5t88 -57.5t117 -20.5q101 0 196 37t168.5 102t117.5 153.5t44 190.5q0 27 -2.5 59.5t-5.5 65.5t-5.5 63.5t-2.5 53.5q0 27 8.5 55t20.5 50t24 36t20 14q3 0 4 -7.5
t4 -17.5t9 -20.5t20 -15.5q11 -5 28 -5.5t31 -0.5q18 24 38.5 57t43 68.5t47 69.5t52 61t56.5 43.5t61 16.5q25 0 44.5 -10t33 -27t20.5 -39t7 -46zM1213 782q18 0 47 5t63 14t68 20.5t62 25.5t45.5 29t17.5 30q0 16 -11.5 27.5t-28 19t-35 11t-31.5 3.5q-22 0 -42 -8
t-38 -21t-33.5 -30t-28.5 -34q-31 -40 -55 -92zM999 1241q30 38 63.5 78t59.5 71q5 5 8 5q4 0 14 -7q26 -18 57 -41t60 -45q5 -5 9 -8t4 -7q0 -3 -6 -11l-121 -146q-2 -3 -5.5 -6.5t-5.5 -3.5q-4 0 -12 5q-28 19 -60 44t-61 51q-10 8 -10 12q0 2 2 4.5t4 4.5z" />
    <glyph glyph-name="uni0637" unicode="&#x637;" horiz-adv-x="727" 
d="M-60 36q0 11 19 21.5t44.5 19.5t50.5 17.5t36 14.5q38 36 63.5 69t40.5 67t21 70t6 77q0 68 2 148t5.5 153.5t7.5 130t8 77.5q12 60 30 118t36 104t33.5 74.5t22.5 28.5q5 0 5 -12q0 -3 -2 -20.5t-5 -45t-6.5 -62.5t-6.5 -71.5t-5 -72.5t-2 -66q0 -24 -1.5 -63.5
t-4.5 -85.5t-7 -95t-8 -92t-8.5 -76.5t-8.5 -48.5q22 28 46.5 57t53 52t61 38t71.5 15q57 0 88 -31.5t31 -91.5q0 -51 -17 -99t-42 -93q-41 -75 -93 -125t-115 -80t-136.5 -42.5t-157.5 -12.5q-13 0 -39 1t-52 4t-45.5 10t-19.5 19zM470 410q-33 0 -60 -16.5t-49 -39.5
t-38 -47t-27 -39q-3 -4 -19.5 -26.5t-35.5 -48t-34 -46t-15 -21.5q0 -2 3 -2q6 0 39 9t78 24.5t95.5 37.5t92.5 48q18 11 33.5 26.5t15.5 38.5q0 16 -5 34t-15 33t-25 25t-34 10z" />
    <glyph glyph-name="uni0638" unicode="&#x638;" horiz-adv-x="727" 
d="M-60 36q0 11 19 21.5t44.5 19.5t50.5 17.5t36 14.5q38 36 63.5 69t40.5 67t21 70t6 77q0 68 2 148t5.5 153.5t7.5 130t8 77.5q12 60 30 118t36 104t33.5 74.5t22.5 28.5q5 0 5 -12q0 -3 -2 -20.5t-5 -45t-6.5 -62.5t-6.5 -71.5t-5 -72.5t-2 -66q0 -24 -1.5 -63.5
t-4.5 -85.5t-7 -95t-8 -92t-8.5 -76.5t-8.5 -48.5q22 28 46.5 57t53 52t61 38t71.5 15q57 0 88 -31.5t31 -91.5q0 -51 -17 -99t-42 -93q-41 -75 -93 -125t-115 -80t-136.5 -42.5t-157.5 -12.5q-13 0 -39 1t-52 4t-45.5 10t-19.5 19zM470 410q-33 0 -60 -16.5t-49 -39.5
t-38 -47t-27 -39q-3 -4 -19.5 -26.5t-35.5 -48t-34 -46t-15 -21.5q0 -2 3 -2q6 0 39 9t78 24.5t95.5 37.5t92.5 48q18 11 33.5 26.5t15.5 38.5q0 16 -5 34t-15 33t-25 25t-34 10zM421 856q30 38 63.5 78t59.5 71q5 5 8 5q4 0 14 -7q26 -18 57 -41t60 -45q5 -5 9 -8t4 -7
q0 -3 -6 -11l-121 -146q-2 -3 -5.5 -6.5t-5.5 -3.5q-4 0 -12 5q-28 19 -60 44t-61 51q-10 8 -10 12q0 2 2 4.5t4 4.5z" />
    <glyph glyph-name="uni0639" unicode="&#x639;" horiz-adv-x="1210" 
d="M769 990q0 -3 -6.5 -12t-15.5 -20.5t-18 -22.5t-13 -17q-12 -15 -24 -25t-24.5 -18.5t-26.5 -16.5t-29 -19q-77 -48 -149.5 -111t-128.5 -138.5t-89.5 -163t-33.5 -184.5q0 -65 18 -117.5t56.5 -89.5t98.5 -57.5t144 -20.5q94 0 171 28t141.5 80t118.5 126.5t102 166.5
q21 40 30 40q7 0 7 -20q0 -43 -20 -108.5t-58 -138t-93.5 -146t-126 -132t-155 -95t-181.5 -36.5q-99 0 -167 35.5t-109 94t-59 134t-18 155.5q0 94 24 183t65 177q10 21 29.5 54.5t57.5 87.5q-19 6 -41 15.5t-40.5 24t-31 33t-12.5 42.5q0 6 14.5 30.5t36 57.5t47 70.5
t47.5 69t37.5 53t17.5 23.5q25 27 54.5 48.5t68.5 21.5q18 0 35.5 -4.5t32 -14.5t23.5 -25t9 -36q0 -29 -22.5 -43.5t-49.5 -14.5q-6 0 -16.5 2.5t-22.5 5.5t-23.5 5.5t-17.5 2.5q-27 0 -46.5 -7.5t-32 -18t-18 -22t-5.5 -18.5q0 -8 14 -21t37.5 -26t54 -22.5t64.5 -9.5
h16.5t14.5 1q17 7 44 21t58 31.5t62.5 35.5t57.5 33q2 1 5.5 3t6.5 2t3 -2z" />
    <glyph glyph-name="uni063A" unicode="&#x63a;" horiz-adv-x="1210" 
d="M769 990q0 -3 -6.5 -12t-15.5 -20.5t-18 -22.5t-13 -17q-12 -15 -24 -25t-24.5 -18.5t-26.5 -16.5t-29 -19q-77 -48 -149.5 -111t-128.5 -138.5t-89.5 -163t-33.5 -184.5q0 -65 18 -117.5t56.5 -89.5t98.5 -57.5t144 -20.5q94 0 171 28t141.5 80t118.5 126.5t102 166.5
q21 40 30 40q7 0 7 -20q0 -43 -20 -108.5t-58 -138t-93.5 -146t-126 -132t-155 -95t-181.5 -36.5q-99 0 -167 35.5t-109 94t-59 134t-18 155.5q0 94 24 183t65 177q10 21 29.5 54.5t57.5 87.5q-19 6 -41 15.5t-40.5 24t-31 33t-12.5 42.5q0 6 14.5 30.5t36 57.5t47 70.5
t47.5 69t37.5 53t17.5 23.5q25 27 54.5 48.5t68.5 21.5q18 0 35.5 -4.5t32 -14.5t23.5 -25t9 -36q0 -29 -22.5 -43.5t-49.5 -14.5q-6 0 -16.5 2.5t-22.5 5.5t-23.5 5.5t-17.5 2.5q-27 0 -46.5 -7.5t-32 -18t-18 -22t-5.5 -18.5q0 -8 14 -21t37.5 -26t54 -22.5t64.5 -9.5
h16.5t14.5 1q17 7 44 21t58 31.5t62.5 35.5t57.5 33q2 1 5.5 3t6.5 2t3 -2zM95 1282q30 38 63.5 78t59.5 71q5 5 8 5q4 0 14 -7q26 -18 57 -41t60 -45q5 -5 9 -8t4 -7q0 -3 -6 -11l-121 -146q-2 -3 -5.5 -6.5t-5.5 -3.5q-4 0 -12 5q-28 19 -60 44t-61 51q-10 8 -10 12
q0 2 2 4.5t4 4.5z" />
    <glyph glyph-name="uni0640" unicode="&#x640;" horiz-adv-x="220" 
d="M312 150h-312l-111 119l-6 6t-3 5q0 10 105 10q18 0 47.5 -0.5t63 -0.5t67 -0.5t57.5 -0.5z" />
    <glyph glyph-name="uni0641" unicode="&#x641;" horiz-adv-x="1523" 
d="M179 514q7 0 8 -11t1 -18q0 -25 -2.5 -44.5t-2.5 -39.5q0 -41 15 -75.5t60 -59t127 -38.5t216 -14q91 0 195 9t202.5 29.5t181.5 52t133 76.5q1 2 1 10q0 22 -17 42q-16 -11 -32.5 -17t-39.5 -6q-24 0 -46.5 9t-40 24t-28.5 34.5t-11 41.5q0 19 4 40t11 46.5t17.5 58
t23.5 75.5q14 48 42 68.5t60 20.5q30 0 53 -16t40.5 -41t29.5 -55t19 -58t10.5 -50t3.5 -31q0 -48 -9.5 -106.5t-31.5 -118.5q-25 -68 -74 -120.5t-115 -91.5t-145.5 -65.5t-165 -43t-174 -23.5t-171.5 -7q-40 0 -86.5 2.5t-93 11t-89 23.5t-75.5 39.5t-53 61t-20 86.5
q0 21 2.5 50.5t7 61.5t10.5 64t13.5 57t16.5 40.5t19 15.5zM954 986q30 38 63.5 78t59.5 71q5 5 8 5q4 0 14 -7q26 -18 57 -41t60 -45q5 -5 9 -8t4 -7q0 -3 -6 -11l-121 -146q-2 -3 -5.5 -6.5t-5.5 -3.5q-4 0 -12 5q-28 19 -60 44t-61 51q-10 8 -10 12q0 2 2 4.5t4 4.5z" />
    <glyph glyph-name="uni0642" unicode="&#x642;" horiz-adv-x="1211" 
d="M782 662q0 30 15 80t41 136q14 48 42 68.5t60 20.5q30 0 60.5 -17.5t45.5 -50.5q30 -68 43.5 -142t13.5 -149q0 -104 -21.5 -210.5t-62 -205t-98.5 -185t-130.5 -150t-158.5 -100.5t-182 -37q-86 0 -149 33t-105 87t-62.5 124t-20.5 144q0 55 6.5 107.5t19 104.5
t32 105.5t45.5 111.5q9 20 19.5 38t20.5 31.5t18.5 21.5t14.5 8q7 0 7 -13q0 -11 -6.5 -35t-22.5 -62q-27 -69 -45 -138t-18 -141q0 -62 19.5 -113.5t55.5 -88.5t88 -57.5t117 -20.5q109 0 205.5 39.5t168.5 108t113.5 161t41.5 199.5q0 35 -5 63.5t-16 42.5
q-17 -14 -39 -23t-45 -9t-45.5 8t-40.5 23t-29 35.5t-11 46.5zM650 1173q30 38 63.5 78t59.5 71q5 5 8 5q4 0 14 -7q26 -18 59.5 -43.5t62.5 -47.5q29 35 59 72t55 66q5 5 8 5q4 0 14 -7q26 -18 59.5 -42.5t62.5 -46.5q5 -5 9 -8t4 -7q0 -3 -6 -11l-121 -146
q-2 -3 -5.5 -6.5t-5.5 -3.5q-4 0 -12 5q-28 19 -61.5 44.5t-62.5 51.5l-113 -136q-2 -3 -5.5 -6.5t-5.5 -3.5q-4 0 -12 5q-28 19 -61.5 45.5t-62.5 52.5q-10 8 -10 12q0 2 2 4.5t4 4.5z" />
    <glyph glyph-name="uni0643" unicode="&#x643;" horiz-adv-x="1485" 
d="M1333 910q0 -59 -1 -126.5t-3.5 -129.5t-7 -110t-11.5 -67q-27 -73 -56.5 -137t-71.5 -117t-100.5 -95t-143.5 -71t-200.5 -44t-271.5 -15q-169 0 -252.5 62t-83.5 195q0 51 8 100t19 94q8 32 15 57t18 25q8 0 10.5 -13.5t2.5 -28.5q0 -28 -3 -49.5t-3 -47.5
q0 -43 16 -72.5t43.5 -49t65 -30t80.5 -15.5t89 -6t91 -1q72 0 148 6.5t147.5 22.5t135.5 41.5t111.5 64.5t75.5 91.5t28 121.5q0 21 -0.5 60t-1.5 86t-2.5 96.5t-2.5 91.5t-1.5 72t-0.5 37q0 82 8.5 170.5t33 173t68.5 158.5t115 128q49 37 112 68t129 58t129.5 52
t114.5 49q27 13 58 28.5t61.5 33t57.5 36t45 36.5q9 9 15 9q8 0 8 -13t-10 -26q-41 -53 -86.5 -94t-91.5 -87q-38 -38 -83 -64.5t-93 -51.5q-45 -23 -88.5 -43t-86.5 -39.5t-86 -40t-87 -45.5q-42 -24 -67 -47.5t-37 -57.5q-17 -46 -21 -107t-4 -153v-230zM711 662
q8 5 18 11t10 10q0 9 -9 12q-11 4 -24.5 8t-27.5 9q-13 5 -27 14t-14 29q0 19 12.5 42.5t30 45t36 39t30.5 25.5q20 15 26.5 19t8.5 4q3 0 3 -3q0 -2 -6 -14.5t-10 -18.5t-7 -12.5t-9 -13.5q-6 -4 -16.5 -11.5t-20.5 -15.5t-17 -17t-7 -16q0 -10 21 -17q16 -6 30 -11t31 -13
q17 -9 17 -34q0 -17 -12 -38.5t-25 -38.5q-23 -30 -73 -50t-107 -20q-5 0 -5 5q0 2 2 4t4 3z" />
    <glyph glyph-name="uni0644" unicode="&#x644;" horiz-adv-x="1245" 
d="M294 623q0 -12 -6.5 -35t-21.5 -61q-28 -69 -46 -138t-18 -141q0 -62 19.5 -113.5t55.5 -88.5t88 -57.5t117 -20.5q85 0 164.5 25.5t145.5 71.5t115 110.5t73 143.5q18 94 24.5 168.5t6.5 128.5v598q0 52 4.5 91t13.5 73.5t23.5 69t34.5 77.5q4 9 9 20.5t10.5 22t10.5 18
t9 7.5t7 -12t3 -23q0 -14 -0.5 -41.5t-1.5 -61.5t-1.5 -70.5t-1.5 -69.5t-1.5 -59t-0.5 -37q0 -181 -7.5 -355.5t-18.5 -333.5q-8 -105 -35.5 -206t-71 -190.5t-101.5 -165.5t-128 -130.5t-150.5 -85.5t-168.5 -31q-87 0 -150.5 33.5t-105 88.5t-62 125.5t-20.5 145.5
q0 117 29.5 220t74.5 204q9 20 19.5 38t20.5 31.5t18.5 21t14.5 7.5q7 0 7 -13z" />
    <glyph glyph-name="uni0645" unicode="&#x645;" horiz-adv-x="908" 
d="M733 585q-36 -36 -85 -55t-102 -33t-105.5 -29t-94.5 -43q-53 -35 -81 -88t-42 -113t-18 -121.5t-9 -112.5q-2 -16 -3.5 -59t-3.5 -99.5t-3 -120t-3 -121t-3.5 -101.5t-3.5 -62l-2.5 -30t-4 -35t-7 -29t-10.5 -12q-7 0 -12.5 16t-9 36t-5.5 38.5t-2 23.5q-2 20 -3.5 62
t-3 93t-2.5 106t-1.5 100.5t-1 76.5t-0.5 34q0 76 7.5 157t26 160t49.5 152.5t77.5 135t111 106.5t150.5 68q-12 2 -19.5 6.5t-7.5 16.5q0 8 4 20.5t6 18.5q3 9 13 30.5t23 48.5t28 55t28 49q5 8 9.5 11t19.5 3q33 0 70 -15.5t68.5 -41.5t52 -59t20.5 -69q0 -9 -14.5 -34
t-33.5 -53t-38.5 -53.5t-28.5 -34.5z" />
    <glyph glyph-name="uni0646" unicode="&#x646;" horiz-adv-x="1223" 
d="M269 524q-27 -69 -47 -135t-20 -138q0 -62 19.5 -113.5t55.5 -88.5t88 -57.5t117 -20.5q67 0 132 17t123 48t108 74.5t86 96.5t56.5 114t20.5 127q0 12 -1 32.5t-2 44t-2 48.5t-1 47q0 27 0.5 56.5t3.5 46.5q6 33 13 60.5t15.5 53t20 50.5t26.5 53q9 17 15 24t10 7
t5 -6.5t1 -15.5t-0.5 -18.5t-1.5 -16.5q-2 -32 -2.5 -73t-1 -88t-2 -98t-5.5 -101q-3 -42 -7 -74.5t-8.5 -59t-9.5 -49t-11 -43.5q-20 -75 -49 -144t-67 -130q-38 -60 -91.5 -119t-118 -106t-138 -76t-151.5 -29q-56 0 -103.5 15t-86 42t-66.5 65t-45 83q-20 52 -28 100.5
t-8 99.5q0 102 29.5 201t77.5 205q9 20 19.5 38t20.5 31.5t18.5 21.5t14.5 8q7 0 7 -13q0 -11 -6.5 -35t-22.5 -62zM512 391q30 38 63.5 78t59.5 71q5 5 8 5q4 0 14 -7q26 -18 57 -41t60 -45q5 -5 9 -8t4 -7q0 -3 -6 -11l-121 -146q-2 -3 -5.5 -6.5t-5.5 -3.5q-4 0 -12 5
q-28 19 -60 44t-61 51q-10 8 -10 12q0 2 2 4.5t4 4.5z" />
    <glyph glyph-name="uni0647" unicode="&#x647;" horiz-adv-x="865" 
d="M795 362q-3 -17 -10.5 -42t-17 -52t-19.5 -51t-17 -38q-8 -15 -45.5 -30t-90 -26t-112.5 -18t-112 -7q-16 0 -24 -1t-10 -2q-32 -27 -65.5 -43.5t-71 -25.5t-79.5 -13.5t-90 -8.5q-37 0 -61.5 2t-24.5 10q0 11 21.5 22.5t69.5 26.5q32 10 61 18.5t56 18t54 22.5t54 31
q-18 26 -21.5 63.5t-3.5 72.5q0 46 14 89t40 79t62.5 63.5t80.5 42.5q6 15 12.5 28.5t16.5 27.5q8 13 19.5 28.5t14.5 15.5q5 0 9 -7.5l12 -22.5q14 -29 36.5 -51t45.5 -37q26 -17 53 -32t52 -32t46 -38.5t36 -51.5q4 -8 6.5 -15.5t2.5 -15.5zM306 391q2 -24 6.5 -45
t13.5 -37.5t24.5 -28.5t39.5 -19l14 -4q33 27 58 65t43 76q0 3 -2.5 7t-4.5 6q-17 24 -40 39t-53 15q-35 0 -60.5 -21t-38.5 -53zM575 420q-11 -48 -33 -94t-52 -88q127 0 234 23q2 5 2 10v10q0 27 -34.5 62.5t-90.5 63.5z" />
    <glyph glyph-name="uni0648" unicode="&#x648;" horiz-adv-x="528" 
d="M438 425q0 -94 -29.5 -187t-81.5 -185q-13 -23 -30 -34t-36 -19q-28 -13 -67.5 -29.5t-81.5 -34.5q-10 -4 -24 -10t-28.5 -11t-27.5 -9t-20 -4q-9 0 -9 7q0 10 18.5 30t42 41t44 38t24.5 21q51 45 99 89.5t96 90.5q12 12 12 31q0 25 -17 42q-32 -23 -72 -23
q-24 0 -46.5 9t-40 24.5t-28.5 36t-11 43.5q0 28 15 78.5t41 137.5q14 48 42 68.5t60 20.5q30 0 58 -17.5t47 -51.5q10 -19 19.5 -44t16.5 -51.5t11 -52t4 -45.5z" />
    <glyph glyph-name="uni0649" unicode="&#x649;" horiz-adv-x="1358" 
d="M1161 996q-14 14 -29.5 23t-35.5 9q-15 0 -41 -17.5t-57 -46t-63 -64.5t-58.5 -72t-43 -68.5t-16.5 -54.5t13.5 -35.5t33 -21t42.5 -10t42 -2.5h16t14 1q13 -15 22 -44t15 -62t8.5 -65.5t2.5 -54.5q0 -76 -21 -156t-59 -156.5t-90.5 -145t-116.5 -120t-136.5 -81.5
t-150.5 -30q-82 0 -145.5 31t-107 85t-66.5 128t-23 161q0 91 18 187.5t44 184.5q16 52 33 98t33 83t29.5 64t21.5 41q10 17 17.5 24.5t12.5 7.5q6 0 9 -9t3 -23q0 -11 -1.5 -23.5t-5.5 -24.5q-17 -58 -37 -115t-37.5 -115t-29 -116.5t-11.5 -119.5q0 -50 14.5 -105
t47 -101.5t86 -76.5t131.5 -30q80 0 161 30t146.5 82.5t106.5 125t41 158.5v6q-116 5 -168 54t-52 155q0 38 6 85q12 88 47 170.5t85.5 157t113 140t130.5 119.5q20 16 47.5 28t56.5 12q9 0 19.5 -3t19.5 -8t14.5 -11.5t5.5 -14.5q0 -12 -5.5 -34.5t-14.5 -49.5t-20.5 -55.5
t-23.5 -52.5t-23 -39.5t-20 -16.5z" />
    <glyph glyph-name="uni064A" unicode="&#x64a;" horiz-adv-x="1358" 
d="M1161 996q-14 14 -29.5 23t-35.5 9q-15 0 -41 -17.5t-57 -46t-63 -64.5t-58.5 -72t-43 -68.5t-16.5 -54.5t13.5 -35.5t33 -21t42.5 -10t42 -2.5h16t14 1q13 -15 22 -44t15 -62t8.5 -65.5t2.5 -54.5q0 -76 -21 -156t-59 -156.5t-90.5 -145t-116.5 -120t-136.5 -81.5
t-150.5 -30q-82 0 -145.5 31t-107 85t-66.5 128t-23 161q0 91 18 187.5t44 184.5q16 52 33 98t33 83t29.5 64t21.5 41q10 17 17.5 24.5t12.5 7.5q6 0 9 -9t3 -23q0 -11 -1.5 -23.5t-5.5 -24.5q-17 -58 -37 -115t-37.5 -115t-29 -116.5t-11.5 -119.5q0 -50 14.5 -105
t47 -101.5t86 -76.5t131.5 -30q80 0 161 30t146.5 82.5t106.5 125t41 158.5v6q-116 5 -168 54t-52 155q0 38 6 85q12 88 47 170.5t85.5 157t113 140t130.5 119.5q20 16 47.5 28t56.5 12q9 0 19.5 -3t19.5 -8t14.5 -11.5t5.5 -14.5q0 -12 -5.5 -34.5t-14.5 -49.5t-20.5 -55.5
t-23.5 -52.5t-23 -39.5t-20 -16.5zM481 -482q30 38 63.5 78t59.5 71q5 5 8 5q4 0 14 -7q26 -18 59.5 -43.5t62.5 -47.5q29 35 59 72t55 66q5 5 8 5q4 0 14 -7q26 -18 59.5 -42.5t62.5 -46.5q5 -5 9 -8t4 -7q0 -3 -6 -11l-121 -146q-2 -3 -5.5 -6.5t-5.5 -3.5q-4 0 -12 5
q-28 19 -61.5 44.5t-62.5 51.5l-113 -136q-2 -3 -5.5 -6.5t-5.5 -3.5q-4 0 -12 5q-28 19 -61.5 45.5t-62.5 52.5q-10 8 -10 12q0 2 2 4.5t4 4.5z" />
    <glyph glyph-name="uni064B" unicode="&#x64b;" 
d="M-192 -69q0 14 12 28q10 15 25 35t27 34q4 3 16.5 8t43.5 16t86.5 30t145.5 50q2 0 13 4.5t17 4.5q3 0 3 -3t-3 -9q-4 -5 -13 -15.5t-19.5 -22t-20.5 -22t-14 -14.5q-17 -18 -39 -27l-250 -96q-4 -2 -11.5 -4t-12.5 -2q-6 0 -6 5zM-201 81q0 14 12 28q10 15 24.5 34.5
t27.5 34.5q4 3 16.5 8t43.5 16t86.5 30t145.5 50q2 0 13 4.5t17 4.5q3 0 3 -3t-3 -9q-4 -5 -13 -15.5t-19.5 -22t-20.5 -22t-14 -14.5q-17 -18 -39 -27l-250 -96q-4 -2 -11.5 -4t-12.5 -2q-6 0 -6 5z" />
    <glyph glyph-name="uni064C" unicode="&#x64c;" 
d="M-38 27q-22 9 -38 23.5t-16 38.5q1 15 7.5 31t15 31t18 29t17.5 25q10 12 22 25.5t26.5 25t31 18.5t36.5 7q21 0 34 -6.5t21 -16.5t11 -23t3 -26q-3 -35 -14 -60.5t-26 -48.5q-24 -37 -62.5 -74.5t-81.5 -67.5t-85.5 -48.5t-73.5 -18.5q-20 0 -31.5 7t-17 18.5t-7 25.5
t-1.5 28q0 28 -4 41.5t-23 13.5q-7 0 -18 -4t-28 -15q-1 -1 -3 -1q-5 0 -5 5t8 12.5t12 9.5q38 29 61.5 40t38.5 11q20 0 29 -9.5t12.5 -23t3 -30t1 -30t6 -23t17.5 -9.5q10 0 25 6q23 15 41 29.5t37 33.5zM-28 167q0 -10 6.5 -21.5t17 -21.5t22 -16.5t22.5 -6.5q22 0 34 13
t12 30t-13.5 31.5t-44.5 17.5q-7 0 -16 -1.5t-17.5 -4.5t-15 -8t-7.5 -12z" />
    <glyph glyph-name="uni064D" unicode="&#x64d;" 
d="M-192 -291q0 14 12 28q10 15 25 35t27 34q4 3 16.5 8t43.5 16t86.5 30t145.5 50q2 0 13 4.5t17 4.5q3 0 3 -3t-3 -9q-4 -5 -13 -15.5t-19.5 -22t-20.5 -22t-14 -14.5q-17 -18 -39 -27l-250 -96q-4 -2 -11.5 -4t-12.5 -2q-6 0 -6 5zM-201 -141q0 14 12 28q10 15 24.5 34.5
t27.5 34.5q4 3 16.5 8t43.5 16t86.5 30t145.5 50q2 0 13 4.5t17 4.5q3 0 3 -3t-3 -9q-4 -5 -13 -15.5t-19.5 -22t-20.5 -22t-14 -14.5q-17 -18 -39 -27l-250 -96q-4 -2 -11.5 -4t-12.5 -2q-6 0 -6 5z" />
    <glyph glyph-name="uni064E" unicode="&#x64e;" 
d="M-201 -74q0 14 12 28q10 15 24.5 34.5t27.5 34.5q4 3 16.5 8t43.5 16t86.5 30t145.5 50q2 0 13 4.5t17 4.5q3 0 3 -3t-3 -9q-4 -5 -13 -15.5t-19.5 -22t-20.5 -22t-14 -14.5q-17 -18 -39 -27l-250 -96q-4 -2 -11.5 -4t-12.5 -2q-6 0 -6 5z" />
    <glyph glyph-name="uni064F" unicode="&#x64f;" 
d="M-38 27q-22 9 -38 23.5t-16 38.5q1 16 7 31.5t14.5 30.5t18 28.5t18.5 25.5q10 12 22 25t27 24.5t31.5 19t35.5 7.5q22 0 35.5 -5.5t21 -15t10.5 -21t3 -23.5q-3 -34 -15.5 -61t-27.5 -50q-47 -72 -114 -120t-142 -85q-15 -8 -37 -14t-35 -6q-3 0 -6.5 0.5t-3.5 3.5
q0 5 7.5 11.5t12.5 9.5q19 14 42.5 27t45.5 28q23 16 43.5 32t39.5 35zM-28 167q0 -10 6.5 -21.5t17 -21.5t22 -16.5t22.5 -6.5q22 0 34 13t12 30t-17 31.5t-41 17.5q-7 0 -16.5 -1.5t-17.5 -4.5t-14.5 -8t-7.5 -12z" />
    <glyph glyph-name="uni0650" unicode="&#x650;" 
d="M-201 -142q0 14 12 28q10 15 24.5 34.5t27.5 34.5q4 3 16.5 8t43.5 16t86.5 30t145.5 50q2 0 13 4.5t17 4.5q3 0 3 -3t-3 -9q-4 -5 -13 -15.5t-19.5 -22t-20.5 -22t-14 -14.5q-17 -18 -39 -27l-250 -96q-4 -2 -11.5 -4t-12.5 -2q-6 0 -6 5z" />
    <glyph glyph-name="uni0651" unicode="&#x651;" 
d="M-180 60q0 18 2 41t10 70l24 74q3 9 5 9q6 0 6 -18l-1 -10q-1 -6 -2.5 -17.5t-3 -25.5t-3 -27.5t-1.5 -23.5q0 -8 1.5 -17.5t6.5 -18t14 -14t24 -5.5q38 0 55 20t20 56q1 18 3 33q3 14 11.5 40t20.5 63q2 5 5 5q2 0 2 -2v-139q0 -11 7.5 -21t18 -17.5t23 -12t23.5 -4.5
q10 0 24.5 6t14.5 18l-6 52q0 35 11.5 68t21.5 66q2 5 6 11t10 6t6 -6l-4 -44l7 -97q0 -11 -0.5 -15.5t-4.5 -16.5q-2 -7 -6 -21.5t-9 -30.5t-10 -30t-8 -20q-11 -27 -36.5 -43t-56.5 -16q-26 0 -41 18t-23 38q-9 -16 -18.5 -31t-21.5 -26.5t-27.5 -18.5t-36.5 -7
q-20 0 -32.5 10t-19.5 25t-9 33t-2 34z" />
    <glyph glyph-name="uni0652" unicode="&#x652;" 
d="M-88 57q0 18 4 45.5t10 58.5t15 62t18 55.5t19 40t19 15.5q22 0 44 -7t39.5 -21.5t28.5 -37t11 -52.5q0 -29 -11 -70t-31 -78t-48.5 -63t-63.5 -26q-15 0 -25.5 8t-16.5 19.5t-9 25t-3 25.5zM-20 214q-7 0 -13 -15.5t-10.5 -35t-7 -37.5t-2.5 -23q0 -15 7.5 -25t30.5 -10
q11 0 25.5 6t27.5 15.5t22 21.5t9 23q0 16 -8.5 30.5t-21 25.5t-28.5 17.5t-31 6.5z" />
    <glyph glyph-name="uni0653" unicode="&#x653;" 
d="M-38 -18q-24 0 -46.5 4.5t-40.5 15.5q-12 7 -25.5 14t-28.5 7q-34 0 -56.5 -14.5t-38.5 -38.5q-4 -7 -8 -12.5t-9 -5.5q-7 0 -7 7q0 2 1 8t3 12q10 27 27.5 56.5t39 54.5t45.5 41t47 16q15 0 26.5 -6.5t25 -14t31.5 -13.5t47 -6q51 0 94.5 14.5t82.5 46.5q6 5 15 15.5
l18 21t17 18.5t13 8q3 0 6 -2t3 -5q0 -2 -2.5 -8.5t-3.5 -8.5q-17 -39 -42 -79.5t-59 -72.5t-77.5 -52.5t-97.5 -20.5z" />
    <glyph glyph-name="uni0654" unicode="&#x654;" 
d="M-164 95q0 5 4.5 13.5t11.5 19t14 22t13 22.5q11 22 25.5 41.5t28.5 33.5q17 17 40 29t49 12q20 0 35 -17t15 -39q0 -10 -6 -23t-17 -13q-8 0 -15 3.5t-14 8t-15 8t-18 3.5q-9 0 -19.5 -4.5t-20 -12t-17 -16t-11.5 -16.5q11 -12 26 -22.5t31 -18.5t32 -13t29 -5t27 9
t28 17t24.5 13.5t19.5 9.5q14 7 24 7q2 0 5 -3t3 -5q0 -5 -2.5 -12t-7.5 -12q-10 -10 -19 -16t-20 -15q-31 -24 -57 -45t-50 -41q-12 -10 -26 -22l-28 -24t-26 -23t-18 -17q-12 -12 -20.5 -22t-16.5 -18q-8 -10 -22 -10q-4 0 -5 4.5t-1 8.5q0 3 2 7.5t4 9.5q4 9 11.5 22.5
t17 28.5t21 30.5t23.5 27.5q-13 5 -29 12.5t-30 17.5t-23.5 21t-9.5 23z" />
    <glyph glyph-name="uni0655" unicode="&#x655;" 
d="M-120 -155q0 5 4.5 13.5t11.5 19t14 22t13 22.5q12 22 26 41.5t28 33.5q17 17 40.5 29t48.5 12q20 0 35 -16.5t15 -38.5q0 -11 -6 -24t-17 -13q-8 0 -15 3.5t-14 8t-15 8t-18 3.5q-9 0 -19.5 -4.5t-20 -12t-17 -16t-10.5 -16.5q10 -11 25 -21.5t31.5 -18.5t32.5 -13
t29 -5q12 0 25.5 9t28.5 17q13 7 23 12.5t21 10.5q6 3 13 4.5t11 1.5q2 0 5 -2.5t3 -4.5q0 -6 -2 -12.5t-7 -11.5q-11 -11 -19.5 -16.5t-20.5 -15.5q-31 -24 -57 -44.5t-49 -40.5q-12 -10 -26.5 -22t-28.5 -24.5t-26 -23t-18 -17.5q-12 -11 -20.5 -21.5t-16.5 -18.5
q-8 -10 -22 -10q-4 0 -5 4.5t-1 9.5q0 3 2 7t4 9q4 9 11.5 22.5t17 29t21 31t23.5 27.5q-13 4 -29 12t-30 17.5t-23.5 20.5t-9.5 23z" />
    <glyph glyph-name="uni0656" unicode="&#x656;" 
d="M-38 -388v125.5t0.5 74t1.5 37.5t2 16q2 19 8.5 39t15 40.5t17.5 40t15 37.5q3 8 6.5 10t5.5 2q6 0 6 -22q0 -3 -2 -22t-4.5 -50.5t-4.5 -73.5t-2 -92q0 -12 -2 -34t-7 -37l-52 -150q-2 -3 -3 -3q-4 0 -4 6z" />
    <glyph glyph-name="uni0657" unicode="&#x657;" 
d="M18 216q22 -9 38 -23.5t16 -38.5q-1 -16 -8 -32.5t-16 -32.5t-19.5 -30.5t-19.5 -26.5q-11 -15 -24 -31t-28.5 -29.5t-33.5 -22t-39 -8.5q-36 2 -48.5 23.5t-12.5 47.5q3 37 15 64t26 53q22 39 52 70.5t64.5 57.5t72 47t74.5 39q15 8 37 14t35 6q3 0 6.5 -0.5t3.5 -3.5
q0 -5 -7.5 -12t-12.5 -9q-20 -14 -42.5 -28t-45.5 -27q-44 -28 -83 -67zM6 74q0 10 -6.5 21.5t-17 21.5t-22.5 16.5t-22 6.5q-22 0 -34 -14t-12 -32t13 -34t39 -19q7 0 17.5 2t20 5.5t16.5 10t8 15.5z" />
    <glyph glyph-name="uni0658" unicode="&#x658;" 
d="M-131 188q0 -19 7 -36t22 -30t37.5 -21t53.5 -8q41 0 73.5 14.5t56.5 38t41 54t28 62.5q6 19 11 28t13 9q7 0 7 -8q0 -5 -1 -15t-3 -22q-12 -56 -33.5 -105.5t-53 -86.5t-73 -58.5t-92.5 -21.5q-39 0 -65.5 9.5t-42 28.5t-22 46.5t-6.5 62.5q0 19 6 45.5t14 50.5t16.5 41
t13.5 17t5 -13q0 -22 -6.5 -42t-6.5 -40z" />
    <glyph glyph-name="uni0660" unicode="&#x660;" horiz-adv-x="542" 
d="M96 518q-6 6 -6 13q0 6 6 14q9 12 28.5 37t40 53t39 52t26.5 34q4 6 9 10.5t10 4.5q6 0 11 -5q15 -11 41.5 -34.5t54.5 -49t53 -48.5t37 -33q6 -6 6 -12q0 -7 -6 -14q-8 -9 -26.5 -32t-39 -50t-39 -51t-26.5 -34q-12 -17 -22 -17q-6 0 -11 5z" />
    <glyph glyph-name="uni0661" unicode="&#x661;" horiz-adv-x="334" 
d="M184 1169q-1 -7 -1 -14.5v-11.5q0 -3 1 -19.5t2.5 -37.5t3 -43t2.5 -36q5 -58 13 -122t17 -127.5t18.5 -125t17 -114.5t12 -95.5t4.5 -69.5q0 -49 -3 -88.5t-10.5 -77t-20 -76t-30.5 -84.5q-11 -27 -18 -27q-5 0 -7.5 5t-3.5 12t-1.5 14.5t-0.5 13.5q0 12 3.5 52t3.5 90
q0 16 -6.5 56t-17 96t-24.5 123t-28 136t-27 136t-23 123q1 20 3.5 41t7.5 38q20 69 43 132.5t42 110.5q3 8 6.5 12t11.5 5q12 0 12 -14q0 -3 -2 -13z" />
    <glyph glyph-name="uni0662" unicode="&#x662;" horiz-adv-x="680" 
d="M543 1055q4 7 12 22t17.5 30.5t19 27t17.5 11.5q11 0 11 -10q0 -4 -1.5 -9t-3.5 -14q-9 -32 -21.5 -72.5t-30 -82.5t-40.5 -82t-54 -71.5t-70 -50.5t-88 -19t-103 23l62 -362q2 -14 4 -31t2 -34q0 -35 -4 -78.5t-15 -80.5q-8 -27 -20.5 -67.5t-25.5 -73.5
q-5 -12 -10.5 -22t-10.5 -10q-4 0 -4.5 4t-0.5 8q1 23 1.5 43t0.5 43q0 89 -15 183t-35 189t-40.5 189.5t-32.5 186.5q-2 15 -3 26.5t-1 24.5q0 16 2.5 31.5t7.5 30.5q5 18 13 44.5t17 54.5t17 53.5t13 40.5q1 5 4 13t6.5 15.5t8 13t9.5 5.5q4 0 8 -5.5t4 -10.5l-11 -63
q0 -36 19 -63.5t49.5 -46t67.5 -28t73 -9.5q55 0 97.5 20.5t77.5 62.5z" />
    </font>
</defs>
</svg>
